File Size90.01 MB (94,378,033 bytes)
DownloadAnonFiles | Go4Up | Jheberg | MultiUp | Sendspace | ShareBeast | SolidFiles
HashesCRC32: D95749C4, MD5: 83975A4677F7506FC1554D07BB935D77, SHA1: 68109C35164F833D6409C1B72D42C8A7E72B2CCE, ED2K: 016E84079E928492AA74C5D704ABE5C7
Screenshots
screenshotscreenshotscreenshotscreenshotscreenshot
Additional Info
General
Complete name                            : [PF] Tokyo Ghoul - 09.mp4
Format                                   : MPEG-4
Format profile                           : Base Media / Version 2
Codec ID                                 : mp42
File size                                : 90.0 MiB
Duration                                 : 24mn 9s
Overall bit rate mode                    : Variable
Overall bit rate                         : 521 Kbps
Encoded date                             : UTC 2014-09-05 06:43:10
Tagged date                              : UTC 2014-09-05 06:43:10

Video
ID                                       : 1
Format                                   : AVC
Format/Info                              : Advanced Video Codec
Format profile                           : High@L4.0
Format settings, CABAC                   : Yes
Format settings, ReFrames                : 8 frames
Codec ID                                 : avc1
Codec ID/Info                            : Advanced Video Coding
Duration                                 : 24mn 9s
Bit rate                                 : 439 Kbps
Width                                    : 1 280 pixels
Height                                   : 720 pixels
Display aspect ratio                     : 16:9
Frame rate mode                          : Constant
Frame rate                               : 23.976 fps
Color space                              : YUV
Chroma subsampling                       : 4:2:0
Bit depth                                : 8 bits
Scan type                                : Progressive
Bits/(Pixel*Frame)                       : 0.020
Stream size                              : 75.9 MiB (84%)
Encoded date                             : UTC 2014-09-05 06:43:10
Tagged date                              : UTC 2014-09-05 06:43:10

Audio
ID                                       : 2
Format                                   : AAC
Format/Info                              : Advanced Audio Codec
Format profile                           : LC
Codec ID                                 : 40
Duration                                 : 24mn 9s
Bit rate mode                            : Variable
Bit rate                                 : 78.3 Kbps
Channel(s)                               : 2 channels
Channel positions                        : Front: L R
Sampling rate                            : 32.0 KHz
Compression mode                         : Lossy
Stream size                              : 13.5 MiB (15%)
Encoded date                             : UTC 2014-09-05 06:43:10
Tagged date                              : UTC 2014-09-05 06:43:10

Other Files in this Torrent
[PF] Tokyo Ghoul - 09.mp4
beta
Anime DDL+NZB mirror
Current Time: 14/12/2019 14:28



About/FAQs