File Size38.88 MB (40,767,252 bytes)
DownloadClickNUpload | Go4Up
  • Ezfile
  • FileFactory
  • FilePup
  • MegaShares
  • Nitroflare
  • NowDownload
  • Oboom
  • OpenLoad
  • Rapidgator
  • Share-Online
  • ToutBox
  • Uplea
  • Uploadable
  • Uppit
  • UsersCloud
| Jheberg | MultiUp
  • ClickNupload
  • Fichier
  • Filerio
  • Free
  • Fufox
  • HugeFiles
  • Mightyupload
  • ToutBox
  • Turbobit
  • UpToBox
  • Uplea
  • UploadBaz
  • Uploadable
  • Uploaded
  • Uppit
  • Userscloud
  • ZippyShare
| OpenLoad | Sendspace | SolidFiles
HashesCRC32: DC63D6D0, MD5: 61C347A42EAE11870AF66CDA6379172C, SHA1: FE0C0190E5BC997668D074C8C74608105C92CE23, SHA256: 1E73E557C8B248D81FD77D6942617FFF01438231ED5940BE1E102EC112F186A9, ED2K: 105DF03B4B9738B3854F5AE0767AAEB7
Screenshots
screenshotscreenshot
SubtitlesAll Attachments | Signs [eng, VOB], Signs [eng, VOB], Dubtitles [eng, VOB], Dubtitles [eng, VOB], Subtitles [eng, VOB], Subtitles [eng, VOB]
Additional Info
General
Unique ID                                : 197413603237635547983663208209250166247 (0x94847A1C0C37BD70AD8AC1049056A5E7)
Complete name                            : NCED (for ordered chapters).mkv
Format                                   : Matroska
Format version                           : Version 4 / Version 2
File size                                : 38.9 MiB
Duration                                 : 1 min 32 s
Overall bit rate                         : 3 511 kb/s
Encoded date                             : UTC 2017-11-03 12:03:03
Writing application                      : mkvmerge v17.0.0 ('Be Ur Friend') 64-bit
Writing library                          : libebml v1.3.5 + libmatroska v1.4.8

Video
ID                                       : 1
Format                                   : AVC
Format/Info                              : Advanced Video Codec
Format profile                           : High 10@L3.1
Format settings, CABAC                   : Yes
Format settings, ReFrames                : 11 frames
Codec ID                                 : V_MPEG4/ISO/AVC
Duration                                 : 1 min 32 s
Bit rate                                 : 3 057 kb/s
Width                                    : 720 pixels
Height                                   : 480 pixels
Display aspect ratio                     : 4:3
Original display aspect ratio            : 3:2
Frame rate mode                          : Constant
Frame rate                               : 23.976 (24000/1001) FPS
Color space                              : YUV
Chroma subsampling                       : 4:2:0
Bit depth                                : 10 bits
Scan type                                : Progressive
Bits/(Pixel*Frame)                       : 0.369
Stream size                              : 33.8 MiB (87%)
Writing library                          : x264 core 150 r2833 df79067
Encoding settings                        : cabac=1 / ref=11 / deblock=1:0:0 / analyse=0x3:0x133 / me=umh / subme=10 / psy=1 / psy_rd=1.00:0.00 / mixed_ref=1 / me_range=24 / chroma_me=1 / trellis=2 / 8x8dct=1 / cqm=0 / deadzone=21,11 / fast_pskip=1 / chroma_qp_offset=-2 / threads=4 / lookahead_threads=1 / sliced_threads=0 / nr=0 / decimate=1 / interlaced=0 / bluray_compat=0 / constrained_intra=0 / bframes=7 / b_pyramid=2 / b_adapt=2 / b_bias=0 / direct=3 / weightb=1 / open_gop=0 / weightp=2 / keyint=360 / keyint_min=23 / scenecut=40 / intra_refresh=0 / rc_lookahead=60 / rc=crf / mbtree=1 / crf=15.5 / qcomp=0.60 / qpmin=0 / qpmax=81 / qpstep=4 / ip_ratio=1.40 / aq=1:1.00
Default                                  : Yes
Forced                                   : No

Audio #1
ID                                       : 2
Format                                   : AC-3
Format/Info                              : Audio Coding 3
Mode extension                           : CM (complete main)
Format settings, Endianness              : Big
Codec ID                                 : A_AC3
Duration                                 : 1 min 32 s
Bit rate mode                            : Constant
Bit rate                                 : 224 kb/s
Channel(s)                               : 2 channels
Channel positions                        : Front: L R
Sampling rate                            : 48.0 kHz
Frame rate                               : 31.250 FPS (1536 spf)
Bit depth                                : 16 bits
Compression mode                         : Lossy
Stream size                              : 2.48 MiB (6%)
Title                                    : Stereo
Language                                 : English
Default                                  : Yes
Forced                                   : No

Audio #2
ID                                       : 3
Format                                   : AC-3
Format/Info                              : Audio Coding 3
Mode extension                           : CM (complete main)
Format settings, Endianness              : Big
Codec ID                                 : A_AC3
Duration                                 : 1 min 32 s
Bit rate mode                            : Constant
Bit rate                                 : 224 kb/s
Channel(s)                               : 2 channels
Channel positions                        : Front: L R
Sampling rate                            : 48.0 kHz
Frame rate                               : 31.250 FPS (1536 spf)
Bit depth                                : 16 bits
Compression mode                         : Lossy
Stream size                              : 2.48 MiB (6%)
Title                                    : Japanese
Default                                  : No
Forced                                   : No

Text #1
ID                                       : 4
Format                                   : VobSub
Muxing mode                              : zlib
Codec ID                                 : S_VOBSUB
Codec ID/Info                            : Picture based subtitle format used on DVDs
Duration                                 : 1 min 16 s
Bit rate                                 : 4 170 b/s
Count of elements                        : 19
Stream size                              : 39.2 KiB (0%)
Title                                    : Signs
Language                                 : English
Default                                  : No
Forced                                   : No

Text #2
ID                                       : 5
Format                                   : VobSub
Muxing mode                              : zlib
Codec ID                                 : S_VOBSUB
Codec ID/Info                            : Picture based subtitle format used on DVDs
Duration                                 : 1 min 16 s
Bit rate                                 : 4 170 b/s
Count of elements                        : 19
Stream size                              : 39.2 KiB (0%)
Title                                    : Dubtitles
Language                                 : English
Default                                  : Yes
Forced                                   : No

Text #3
ID                                       : 6
Format                                   : VobSub
Muxing mode                              : zlib
Codec ID                                 : S_VOBSUB
Codec ID/Info                            : Picture based subtitle format used on DVDs
Duration                                 : 1 min 16 s
Bit rate                                 : 4 170 b/s
Count of elements                        : 19
Stream size                              : 39.2 KiB (0%)
Title                                    : Subtitles
Language                                 : English
Default                                  : No
Forced                                   : No

Other Files in this Torrent
NCED (for ordered chapters).mkv
beta
Anime DDL+NZB mirror
Current Time: 17/06/2024 06:55



About/FAQs

Discord