05. Ghost Stories (2000) [DVD 480p Hi10P AC3 dual-audio][kuchikirukia].mkv


File Size280.5 MB (294,113,600 bytes)
DownloadClickNUpload | Go4Up
  • Ezfile
  • FileFactory
  • FilePup
  • MegaShares
  • Nitroflare
  • NowDownload
  • Oboom
  • OpenLoad
  • Rapidgator
  • Share-Online
  • ToutBox
  • Uplea
  • Uploadable
  • Uppit
  • UsersCloud
| Jheberg | MultiUp
  • ClickNupload
  • Fichier
  • Filerio
  • Free
  • Fufox
  • HugeFiles
  • Mightyupload
  • ToutBox
  • Turbobit
  • UpToBox
  • Uplea
  • UploadBaz
  • Uploadable
  • Uploaded
  • Uppit
  • Userscloud
| OpenLoad | Sendspace | SolidFiles
HashesCRC32: F20144D6, MD5: A9371EEFF31641E04A444660790C70E3, SHA1: 057214513104E81EEDD96F924F83B8B264F5578A, SHA256: 9D7BAC2F5B48743577D5FE4E84EE2106537EC4CF8B23CF06511F4398964AEF65, ED2K: 8B2B1D06115DD4800489174B43A55E82
Screenshots
screenshotscreenshotscreenshotscreenshotscreenshot
SubtitlesAll Attachments | Signs [eng, VOB], Signs [eng, VOB], Dubtitles [eng, VOB], Dubtitles [eng, VOB], Subtitles [eng, VOB], Subtitles [eng, VOB]
Additional Info
General
Unique ID                                : 217089298146232969090371930652056180701 (0xA351E0C3FDABD7B8914EA1E459AB57DD)
Complete name                            : 05. Ghost Stories (2000) [DVD 480p Hi10P AC3 dual-audio][kuchikirukia].mkv
Format                                   : Matroska
Format version                           : Version 4 / Version 2
File size                                : 280 MiB
Duration                                 : 22 min 2 s
Overall bit rate                         : 1 779 kb/s
Encoded date                             : UTC 2017-11-03 17:14:35
Writing application                      : mkvmerge v17.0.0 ('Be Ur Friend') 64-bit
Writing library                          : libebml v1.3.5 + libmatroska v1.4.8

Video
ID                                       : 1
Format                                   : AVC
Format/Info                              : Advanced Video Codec
Format profile                           : High 10@L3.1
Format settings, CABAC                   : Yes
Format settings, ReFrames                : 11 frames
Codec ID                                 : V_MPEG4/ISO/AVC
Duration                                 : 21 min 58 s
Bit rate                                 : 1 329 kb/s
Width                                    : 720 pixels
Height                                   : 480 pixels
Display aspect ratio                     : 4:3
Original display aspect ratio            : 3:2
Frame rate mode                          : Constant
Frame rate                               : 23.976 (24000/1001) FPS
Color space                              : YUV
Chroma subsampling                       : 4:2:0
Bit depth                                : 10 bits
Scan type                                : Progressive
Bits/(Pixel*Frame)                       : 0.160
Stream size                              : 209 MiB (74%)
Writing library                          : x264 core 150 r2833 df79067
Encoding settings                        : cabac=1 / ref=11 / deblock=1:0:0 / analyse=0x3:0x133 / me=umh / subme=10 / psy=1 / psy_rd=1.00:0.00 / mixed_ref=1 / me_range=24 / chroma_me=1 / trellis=2 / 8x8dct=1 / cqm=0 / deadzone=21,11 / fast_pskip=1 / chroma_qp_offset=-2 / threads=4 / lookahead_threads=1 / sliced_threads=0 / nr=0 / decimate=1 / interlaced=0 / bluray_compat=0 / constrained_intra=0 / bframes=7 / b_pyramid=2 / b_adapt=2 / b_bias=0 / direct=3 / weightb=1 / open_gop=0 / weightp=2 / keyint=360 / keyint_min=23 / scenecut=40 / intra_refresh=0 / rc_lookahead=60 / rc=crf / mbtree=1 / crf=15.5 / qcomp=0.60 / qpmin=0 / qpmax=81 / qpstep=4 / ip_ratio=1.40 / aq=1:1.00
Default                                  : Yes
Forced                                   : No

Audio #1
ID                                       : 2
Format                                   : AC-3
Format/Info                              : Audio Coding 3
Mode extension                           : CM (complete main)
Format settings, Endianness              : Big
Codec ID                                 : A_AC3
Duration                                 : 21 min 58 s
Bit rate mode                            : Constant
Bit rate                                 : 224 kb/s
Channel(s)                               : 2 channels
Channel positions                        : Front: L R
Sampling rate                            : 48.0 kHz
Frame rate                               : 31.250 FPS (1536 spf)
Bit depth                                : 16 bits
Compression mode                         : Lossy
Stream size                              : 35.2 MiB (13%)
Title                                    : Stereo
Language                                 : English
Default                                  : Yes
Forced                                   : No

Audio #2
ID                                       : 3
Format                                   : AC-3
Format/Info                              : Audio Coding 3
Mode extension                           : CM (complete main)
Format settings, Endianness              : Big
Codec ID                                 : A_AC3
Duration                                 : 21 min 58 s
Bit rate mode                            : Constant
Bit rate                                 : 224 kb/s
Channel(s)                               : 2 channels
Channel positions                        : Front: L R
Sampling rate                            : 48.0 kHz
Frame rate                               : 31.250 FPS (1536 spf)
Bit depth                                : 16 bits
Compression mode                         : Lossy
Stream size                              : 35.2 MiB (13%)
Title                                    : Japanese
Default                                  : No
Forced                                   : No

Text #1
ID                                       : 4
Format                                   : VobSub
Muxing mode                              : zlib
Codec ID                                 : S_VOBSUB
Codec ID/Info                            : Picture based subtitle format used on DVDs
Duration                                 : 21 min 1 s
Bit rate                                 : 426 b/s
Count of elements                        : 30
Stream size                              : 65.6 KiB (0%)
Title                                    : Signs
Language                                 : English
Default                                  : Yes
Forced                                   : No

Text #2
ID                                       : 5
Format                                   : VobSub
Muxing mode                              : zlib
Codec ID                                 : S_VOBSUB
Codec ID/Info                            : Picture based subtitle format used on DVDs
Duration                                 : 22 min 1 s
Bit rate                                 : 6 647 b/s
Count of elements                        : 427
Stream size                              : 1.05 MiB (0%)
Title                                    : Dubtitles
Language                                 : English
Default                                  : No
Forced                                   : No

Text #3
ID                                       : 6
Format                                   : VobSub
Muxing mode                              : zlib
Codec ID                                 : S_VOBSUB
Codec ID/Info                            : Picture based subtitle format used on DVDs
Duration                                 : 21 min 1 s
Bit rate                                 : 5 153 b/s
Count of elements                        : 332
Stream size                              : 793 KiB (0%)
Title                                    : Subtitles
Language                                 : English
Default                                  : No
Forced                                   : No

Menu
00:00:00.000                             : en:Chapter 01 / en:Chapter 05
00:01:01.428                             : en:Chapter 02
00:02:31.518                             : en:Chapter 03
00:08:54.300                             : en:Chapter 04

Other Files in this Torrent
05. Ghost Stories (2000) [DVD 480p Hi10P AC3 dual-audio][kuchikirukia].mkv
beta
Anime DDL+NZB mirror
Current Time: 21/06/2024 23:09



About/FAQs

Discord