08. Ghost Stories (2000) [DVD 480p Hi10P AC3 dual-audio][kuchikirukia].mkv


File Size256.7 MB (269,118,569 bytes)
DownloadClickNUpload | Go4Up
  • Ezfile
  • FileFactory
  • FilePup
  • MegaShares
  • Nitroflare
  • NowDownload
  • Oboom
  • OpenLoad
  • Rapidgator
  • Share-Online
  • ToutBox
  • Uplea
  • Uploadable
  • Uppit
  • UsersCloud
| Jheberg | MultiUp
  • ClickNupload
  • Fichier
  • Filerio
  • Free
  • Fufox
  • HugeFiles
  • Mightyupload
  • ToutBox
  • Turbobit
  • UpToBox
  • Uplea
  • UploadBaz
  • Uploadable
  • Uploaded
  • Uppit
  • Userscloud
| OpenLoad | Sendspace | SolidFiles
HashesCRC32: 0EA73800, MD5: 87251A94CB0F1AC561759FD912F5C4B8, SHA1: A0B1D53CF9709E275F3AE77D20AB053DE0C6E569, SHA256: EB08AE679F712299FF56B3C6CDB1F31155EBE1C804E230D5187EC3345D428155, ED2K: 3B00E71D8F21C67D0E98BC9A1140C0F0
Screenshots
screenshotscreenshotscreenshotscreenshotscreenshot
SubtitlesAll Attachments | Signs [eng, VOB], Signs [eng, VOB], Dubtitles [eng, VOB], Dubtitles [eng, VOB], Subtitles [eng, VOB], Subtitles [eng, VOB]
Additional Info
General
Unique ID                                : 195091152695183157946796753871164665375 (0x92C530750D3DDC50A4C4C5B2AED7EE1F)
Complete name                            : 08. Ghost Stories (2000) [DVD 480p Hi10P AC3 dual-audio][kuchikirukia].mkv
Format                                   : Matroska
Format version                           : Version 4 / Version 2
File size                                : 257 MiB
Duration                                 : 21 min 51 s
Overall bit rate                         : 1 641 kb/s
Encoded date                             : UTC 2017-11-05 01:05:29
Writing application                      : mkvmerge v17.0.0 ('Be Ur Friend') 64-bit
Writing library                          : libebml v1.3.5 + libmatroska v1.4.8

Video
ID                                       : 1
Format                                   : AVC
Format/Info                              : Advanced Video Codec
Format profile                           : High 10@L3.1
Format settings, CABAC                   : Yes
Format settings, ReFrames                : 11 frames
Codec ID                                 : V_MPEG4/ISO/AVC
Duration                                 : 21 min 51 s
Bit rate                                 : 1 184 kb/s
Width                                    : 720 pixels
Height                                   : 480 pixels
Display aspect ratio                     : 4:3
Original display aspect ratio            : 3:2
Frame rate mode                          : Constant
Frame rate                               : 23.976 (24000/1001) FPS
Color space                              : YUV
Chroma subsampling                       : 4:2:0
Bit depth                                : 10 bits
Scan type                                : Progressive
Bits/(Pixel*Frame)                       : 0.143
Stream size                              : 185 MiB (72%)
Writing library                          : x264 core 150 r2833 df79067
Encoding settings                        : cabac=1 / ref=11 / deblock=1:0:0 / analyse=0x3:0x133 / me=umh / subme=10 / psy=1 / psy_rd=1.00:0.00 / mixed_ref=1 / me_range=24 / chroma_me=1 / trellis=2 / 8x8dct=1 / cqm=0 / deadzone=21,11 / fast_pskip=1 / chroma_qp_offset=-2 / threads=4 / lookahead_threads=1 / sliced_threads=0 / nr=0 / decimate=1 / interlaced=0 / bluray_compat=0 / constrained_intra=0 / bframes=7 / b_pyramid=2 / b_adapt=2 / b_bias=0 / direct=3 / weightb=1 / open_gop=0 / weightp=2 / keyint=360 / keyint_min=23 / scenecut=40 / intra_refresh=0 / rc_lookahead=60 / rc=crf / mbtree=1 / crf=15.5 / qcomp=0.60 / qpmin=0 / qpmax=81 / qpstep=4 / ip_ratio=1.40 / aq=1:1.00
Default                                  : Yes
Forced                                   : No

Audio #1
ID                                       : 2
Format                                   : AC-3
Format/Info                              : Audio Coding 3
Mode extension                           : CM (complete main)
Format settings, Endianness              : Big
Codec ID                                 : A_AC3
Duration                                 : 21 min 51 s
Bit rate mode                            : Constant
Bit rate                                 : 224 kb/s
Channel(s)                               : 2 channels
Channel positions                        : Front: L R
Sampling rate                            : 48.0 kHz
Frame rate                               : 31.250 FPS (1536 spf)
Bit depth                                : 16 bits
Compression mode                         : Lossy
Stream size                              : 35.0 MiB (14%)
Title                                    : Stereo
Language                                 : English
Default                                  : Yes
Forced                                   : No

Audio #2
ID                                       : 3
Format                                   : AC-3
Format/Info                              : Audio Coding 3
Mode extension                           : CM (complete main)
Format settings, Endianness              : Big
Codec ID                                 : A_AC3
Duration                                 : 21 min 51 s
Bit rate mode                            : Constant
Bit rate                                 : 224 kb/s
Channel(s)                               : 2 channels
Channel positions                        : Front: L R
Sampling rate                            : 48.0 kHz
Frame rate                               : 31.250 FPS (1536 spf)
Bit depth                                : 16 bits
Compression mode                         : Lossy
Stream size                              : 35.0 MiB (14%)
Title                                    : Japanese
Default                                  : No
Forced                                   : No

Text #1
ID                                       : 4
Format                                   : VobSub
Muxing mode                              : zlib
Codec ID                                 : S_VOBSUB
Codec ID/Info                            : Picture based subtitle format used on DVDs
Duration                                 : 19 min 21 s
Bit rate                                 : 818 b/s
Count of elements                        : 45
Stream size                              : 116 KiB (0%)
Title                                    : Signs
Language                                 : English
Default                                  : Yes
Forced                                   : No

Text #2
ID                                       : 5
Format                                   : VobSub
Muxing mode                              : zlib
Codec ID                                 : S_VOBSUB
Codec ID/Info                            : Picture based subtitle format used on DVDs
Duration                                 : 21 min 45 s
Bit rate                                 : 9 750 b/s
Count of elements                        : 590
Stream size                              : 1.52 MiB (1%)
Title                                    : Dubtitles
Language                                 : English
Default                                  : No
Forced                                   : No

Text #3
ID                                       : 6
Format                                   : VobSub
Muxing mode                              : zlib
Codec ID                                 : S_VOBSUB
Codec ID/Info                            : Picture based subtitle format used on DVDs
Duration                                 : 21 min 22 s
Bit rate                                 : 6 060 b/s
Count of elements                        : 386
Stream size                              : 949 KiB (0%)
Title                                    : Subtitles
Language                                 : English
Default                                  : No
Forced                                   : No

Menu
00:00:00.000                             : en:Chapter 01 / en:Chapter 05
00:00:21.488                             : en:Chapter 02
00:01:51.478                             : en:Chapter 03
00:12:01.087                             : en:Chapter 04

Other Files in this Torrent
08. Ghost Stories (2000) [DVD 480p Hi10P AC3 dual-audio][kuchikirukia].mkv
beta
Anime DDL+NZB mirror
Current Time: 13/07/2024 00:33



About/FAQs

Discord