10. Ghost Stories (2000) [DVD 480p Hi10P AC3 dual-audio][kuchikirukia].mkv


File Size237.7 MB (249,268,559 bytes)
DownloadClickNUpload | Go4Up
  • Ezfile
  • FileFactory
  • FilePup
  • MegaShares
  • Nitroflare
  • NowDownload
  • Oboom
  • OpenLoad
  • Rapidgator
  • Share-Online
  • ToutBox
  • Uplea
  • Uploadable
  • Uppit
  • UsersCloud
| Jheberg | MultiUp
  • ClickNupload
  • Fichier
  • Filerio
  • Free
  • Fufox
  • HugeFiles
  • Mightyupload
  • ToutBox
  • Turbobit
  • UpToBox
  • Uplea
  • UploadBaz
  • Uploadable
  • Uploaded
  • Uppit
  • Userscloud
| OpenLoad | Sendspace | SolidFiles
HashesCRC32: 465DDD03, MD5: 2E73D96CFBBC1D3A3DDA024F31912B98, SHA1: F0C9E01178A812673E87C46C4A031ACF13CB28A1, SHA256: 11FBA50FC682B0D9F034F451F6A9847E648B51E1E02280EA959858A43D461745, ED2K: 81C439590BDE523B8C417A74904CECE2
Screenshots
screenshotscreenshotscreenshotscreenshotscreenshot
SubtitlesAll Attachments | Signs [eng, VOB], Signs [eng, VOB], Dubtitles [eng, VOB], Dubtitles [eng, VOB], Subtitles [eng, VOB], Subtitles [eng, VOB]
Additional Info
General
Unique ID                                : 208291271966434875495190519050466500684 (0x9CB37095A634E1B0A8D9F9C7DF3C204C)
Complete name                            : 10. Ghost Stories (2000) [DVD 480p Hi10P AC3 dual-audio][kuchikirukia].mkv
Format                                   : Matroska
Format version                           : Version 4 / Version 2
File size                                : 238 MiB
Duration                                 : 22 min 2 s
Overall bit rate                         : 1 507 kb/s
Encoded date                             : UTC 2017-11-06 16:13:19
Writing application                      : mkvmerge v17.0.0 ('Be Ur Friend') 64-bit
Writing library                          : libebml v1.3.5 + libmatroska v1.4.8

Video
ID                                       : 1
Format                                   : AVC
Format/Info                              : Advanced Video Codec
Format profile                           : High 10@L3.1
Format settings, CABAC                   : Yes
Format settings, ReFrames                : 11 frames
Codec ID                                 : V_MPEG4/ISO/AVC
Duration                                 : 22 min 2 s
Bit rate                                 : 1 051 kb/s
Width                                    : 720 pixels
Height                                   : 480 pixels
Display aspect ratio                     : 4:3
Original display aspect ratio            : 3:2
Frame rate mode                          : Constant
Frame rate                               : 23.976 (24000/1001) FPS
Color space                              : YUV
Chroma subsampling                       : 4:2:0
Bit depth                                : 10 bits
Scan type                                : Progressive
Bits/(Pixel*Frame)                       : 0.127
Stream size                              : 166 MiB (70%)
Writing library                          : x264 core 150 r2833 df79067
Encoding settings                        : cabac=1 / ref=11 / deblock=1:0:0 / analyse=0x3:0x133 / me=umh / subme=10 / psy=1 / psy_rd=1.00:0.00 / mixed_ref=1 / me_range=24 / chroma_me=1 / trellis=2 / 8x8dct=1 / cqm=0 / deadzone=21,11 / fast_pskip=1 / chroma_qp_offset=-2 / threads=4 / lookahead_threads=1 / sliced_threads=0 / nr=0 / decimate=1 / interlaced=0 / bluray_compat=0 / constrained_intra=0 / bframes=7 / b_pyramid=2 / b_adapt=2 / b_bias=0 / direct=3 / weightb=1 / open_gop=0 / weightp=2 / keyint=360 / keyint_min=23 / scenecut=40 / intra_refresh=0 / rc_lookahead=60 / rc=crf / mbtree=1 / crf=15.5 / qcomp=0.60 / qpmin=0 / qpmax=81 / qpstep=4 / ip_ratio=1.40 / aq=1:1.00
Default                                  : Yes
Forced                                   : No

Audio #1
ID                                       : 2
Format                                   : AC-3
Format/Info                              : Audio Coding 3
Mode extension                           : CM (complete main)
Format settings, Endianness              : Big
Codec ID                                 : A_AC3
Duration                                 : 22 min 2 s
Bit rate mode                            : Constant
Bit rate                                 : 224 kb/s
Channel(s)                               : 2 channels
Channel positions                        : Front: L R
Sampling rate                            : 48.0 kHz
Frame rate                               : 31.250 FPS (1536 spf)
Bit depth                                : 16 bits
Compression mode                         : Lossy
Stream size                              : 35.3 MiB (15%)
Title                                    : Stereo
Language                                 : English
Default                                  : Yes
Forced                                   : No

Audio #2
ID                                       : 3
Format                                   : AC-3
Format/Info                              : Audio Coding 3
Mode extension                           : CM (complete main)
Format settings, Endianness              : Big
Codec ID                                 : A_AC3
Duration                                 : 22 min 2 s
Bit rate mode                            : Constant
Bit rate                                 : 224 kb/s
Channel(s)                               : 2 channels
Channel positions                        : Front: L R
Sampling rate                            : 48.0 kHz
Frame rate                               : 31.250 FPS (1536 spf)
Bit depth                                : 16 bits
Compression mode                         : Lossy
Stream size                              : 35.3 MiB (15%)
Title                                    : Japanese
Default                                  : No
Forced                                   : No

Text #1
ID                                       : 4
Format                                   : VobSub
Muxing mode                              : zlib
Codec ID                                 : S_VOBSUB
Codec ID/Info                            : Picture based subtitle format used on DVDs
Duration                                 : 20 min 58 s
Bit rate                                 : 832 b/s
Count of elements                        : 55
Stream size                              : 128 KiB (0%)
Title                                    : Signs
Language                                 : English
Default                                  : Yes
Forced                                   : No

Text #2
ID                                       : 5
Format                                   : VobSub
Muxing mode                              : zlib
Codec ID                                 : S_VOBSUB
Codec ID/Info                            : Picture based subtitle format used on DVDs
Duration                                 : 22 min 1 s
Bit rate                                 : 7 163 b/s
Count of elements                        : 425
Stream size                              : 1.13 MiB (0%)
Title                                    : Dubtitles
Language                                 : English
Default                                  : No
Forced                                   : No

Text #3
ID                                       : 6
Format                                   : VobSub
Muxing mode                              : zlib
Codec ID                                 : S_VOBSUB
Codec ID/Info                            : Picture based subtitle format used on DVDs
Duration                                 : 21 min 4 s
Bit rate                                 : 5 266 b/s
Count of elements                        : 310
Stream size                              : 813 KiB (0%)
Title                                    : Subtitles
Language                                 : English
Default                                  : No
Forced                                   : No

Menu
00:00:00.000                             : en:Chapter 01 / en:Chapter 05
00:01:48.475                             : en:Chapter 02
00:03:18.464                             : en:Chapter 03
00:12:20.306                             : en:Chapter 04

Other Files in this Torrent
10. Ghost Stories (2000) [DVD 480p Hi10P AC3 dual-audio][kuchikirukia].mkv
beta
Anime DDL+NZB mirror
Current Time: 17/06/2024 08:20



About/FAQs

Discord