File Size960.4 MB (1,007,051,652 bytes)
DownloadJheberg | MultiUp | OpenLoad | UsersCloud
Sendspace: Part1, Part2, Part3, Part4
SolidFiles: Part1, Part2
HashesCRC32: 69535A3F, MD5: 7370F47023FC6F2B280B4792D08DB58C, SHA1: 897CCF8CFA94BFCACD8A7209F817E98391BCF58E, SHA256: 585E0B6ABC3186E78A8F70D0BB42A7DCF8A9F0598A2C76E408EE0C32D2D1510A, ED2K: 63B4B2ED2F5E00E72D4B0F90E4D2252B
Screenshots
screenshotscreenshotscreenshotscreenshotscreenshot
SubtitlesAll Attachments | und [ASS]
Additional Info
General
Unique ID                                : 218632313774601404910092904658543382719 (0xA47B0D4F46D88A51A1F1A8E8756D10BF)
Complete name                            : Koyomimonogatari Episode 9.mkv
Format                                   : Matroska
Format version                           : Version 4 / Version 2
File size                                : 960 MiB
Duration                                 : 12mn 47s
Overall bit rate mode                    : Variable
Overall bit rate                         : 10.5 Mbps
Encoded date                             : UTC 2016-07-15 11:11:14
Writing application                      : mkvmerge v9.0.1 ('Obstacles') 64bit
Writing library                          : libebml v1.3.3 + libmatroska v1.4.4

Video
ID                                       : 2
Format                                   : AVC
Format/Info                              : Advanced Video Codec
Format profile                           : High@L4
Format settings, CABAC                   : Yes
Format settings, ReFrames                : 4 frames
Codec ID                                 : V_MPEG4/ISO/AVC
Duration                                 : 12mn 47s
Bit rate                                 : 9 043 Kbps
Width                                    : 1 920 pixels
Height                                   : 1 080 pixels
Display aspect ratio                     : 16:9
Frame rate mode                          : Constant
Frame rate                               : 23.976 (24000/1001) fps
Color space                              : YUV
Chroma subsampling                       : 4:2:0
Bit depth                                : 8 bits
Scan type                                : Progressive
Bits/(Pixel*Frame)                       : 0.182
Stream size                              : 827 MiB (86%)
Writing library                          : x264 core 148
Encoding settings                        : opencl=1 / cabac=1 / ref=4 / deblock=1:-2:-2 / analyse=0x3:0x113 / me=umh / subme=9 / psy=1 / psy_rd=0.70:0.00 / mixed_ref=0 / me_range=32 / chroma_me=1 / trellis=2 / 8x8dct=1 / cqm=0 / deadzone=21,11 / fast_pskip=1 / chroma_qp_offset=-2 / threads=8 / lookahead_threads=1 / sliced_threads=0 / nr=0 / decimate=1 / interlaced=0 / bluray_compat=0 / constrained_intra=0 / bframes=9 / b_pyramid=2 / b_adapt=2 / b_bias=0 / direct=3 / weightb=1 / open_gop=0 / weightp=2 / keyint=250 / keyint_min=23 / scenecut=40 / intra_refresh=0 / rc_lookahead=40 / rc=crf / mbtree=1 / crf=16.0 / qcomp=0.70 / qpmin=10 / qpmax=20 / qpstep=4 / ip_ratio=1.40 / aq=1:1.00
Default                                  : Yes
Forced                                   : No

Audio
ID                                       : 3
Format                                   : FLAC
Format/Info                              : Free Lossless Audio Codec
Codec ID                                 : A_FLAC
Duration                                 : 12mn 47s
Bit rate mode                            : Variable
Bit rate                                 : 1 451 Kbps
Channel(s)                               : 2 channels
Channel positions                        : Front: L R
Sampling rate                            : 48.0 KHz
Frame rate                               : 10.417 fps (4608 spf)
Bit depth                                : 24 bits
Stream size                              : 133 MiB (14%)
Writing library                          : Lavf56.40.101
Language                                 : Japanese
Default                                  : Yes
Forced                                   : No

Text
ID                                       : 1
Format                                   : ASS
Codec ID                                 : S_TEXT/ASS
Codec ID/Info                            : Advanced Sub Station Alpha
Duration                                 : 12mn 37s
Bit rate                                 : 226 bps
Count of elements                        : 234
Compression mode                         : Lossless
Stream size                              : 21.0 KiB (0%)
Default                                  : Yes
Forced                                   : No

Other Files in this Torrent
Koyomimonogatari Episode 9.mkv
beta
Anime DDL+NZB mirror
Current Time: 12/07/2024 12:30



About/FAQs

Discord