File Size761.2 MB (798,222,803 bytes)
DownloadGo4Up | Jheberg
  • 1Fichier
  • Ezfile
  • FileRio
  • Free
  • Hugefiles
  • Jeodrive
  • Letitbit
  • Nitroflare
  • Toutbox
  • Turbobit
  • UpToBox
  • Uplea
  • UploadedTo
| MultiUp | OpenLoad | UsersCloud
Sendspace: Part1, Part2, Part3
SolidFiles: Part1, Part2
HashesCRC32: A5A5260C, MD5: 6D4BC02072E8E6EA4F344DA80DBFFF4A, SHA1: B7E2B17B8CA830828E0C4E95CF1577E5833B9C26, SHA256: 2E8A7CA00EEE942321C70C8939B80135B951105F8B3961A995A014FC70DC18D3, ED2K: 0E27D8D8D1694E2862D4C50B3904A6B8
Screenshots
screenshotscreenshotscreenshotscreenshotscreenshot
SubtitlesAll Attachments | und [ASS]
Additional Info
General
Unique ID                                : 198813480053800850979124271146233431604 (0x9592155D86AE232FADEB5B8671BF0634)
Complete name                            : Koyomimonogatari Episode 12.mkv
Format                                   : Matroska
Format version                           : Version 4 / Version 2
File size                                : 761 MiB
Duration                                 : 12mn 14s
Overall bit rate mode                    : Variable
Overall bit rate                         : 8 699 Kbps
Encoded date                             : UTC 2016-07-16 01:10:47
Writing application                      : mkvmerge v9.0.1 ('Obstacles') 64bit
Writing library                          : libebml v1.3.3 + libmatroska v1.4.4

Video
ID                                       : 2
Format                                   : AVC
Format/Info                              : Advanced Video Codec
Format profile                           : High@L4
Format settings, CABAC                   : Yes
Format settings, ReFrames                : 4 frames
Codec ID                                 : V_MPEG4/ISO/AVC
Duration                                 : 12mn 14s
Bit rate                                 : 7 329 Kbps
Width                                    : 1 920 pixels
Height                                   : 1 080 pixels
Display aspect ratio                     : 16:9
Frame rate mode                          : Constant
Frame rate                               : 23.976 (24000/1001) fps
Color space                              : YUV
Chroma subsampling                       : 4:2:0
Bit depth                                : 8 bits
Scan type                                : Progressive
Bits/(Pixel*Frame)                       : 0.147
Stream size                              : 641 MiB (84%)
Writing library                          : x264 core 148
Encoding settings                        : opencl=1 / cabac=1 / ref=4 / deblock=1:-2:-2 / analyse=0x3:0x113 / me=umh / subme=9 / psy=1 / psy_rd=0.70:0.00 / mixed_ref=0 / me_range=32 / chroma_me=1 / trellis=2 / 8x8dct=1 / cqm=0 / deadzone=21,11 / fast_pskip=1 / chroma_qp_offset=-2 / threads=8 / lookahead_threads=1 / sliced_threads=0 / nr=0 / decimate=1 / interlaced=0 / bluray_compat=0 / constrained_intra=0 / bframes=9 / b_pyramid=2 / b_adapt=2 / b_bias=0 / direct=3 / weightb=1 / open_gop=0 / weightp=2 / keyint=250 / keyint_min=23 / scenecut=40 / intra_refresh=0 / rc_lookahead=40 / rc=crf / mbtree=1 / crf=16.0 / qcomp=0.70 / qpmin=10 / qpmax=20 / qpstep=4 / ip_ratio=1.40 / aq=1:1.00
Default                                  : Yes
Forced                                   : No

Audio
ID                                       : 3
Format                                   : FLAC
Format/Info                              : Free Lossless Audio Codec
Codec ID                                 : A_FLAC
Duration                                 : 12mn 14s
Bit rate mode                            : Variable
Bit rate                                 : 1 368 Kbps
Channel(s)                               : 2 channels
Channel positions                        : Front: L R
Sampling rate                            : 48.0 KHz
Frame rate                               : 10.417 fps (4608 spf)
Bit depth                                : 24 bits
Stream size                              : 120 MiB (16%)
Writing library                          : Lavf56.40.101
Language                                 : Japanese
Default                                  : Yes
Forced                                   : No

Text
ID                                       : 1
Format                                   : ASS
Codec ID                                 : S_TEXT/ASS
Codec ID/Info                            : Advanced Sub Station Alpha
Duration                                 : 12mn 10s
Bit rate                                 : 188 bps
Count of elements                        : 201
Compression mode                         : Lossless
Stream size                              : 16.8 KiB (0%)
Default                                  : Yes
Forced                                   : No

Other Files in this Torrent
Koyomimonogatari Episode 12.mkv
beta
Anime DDL+NZB mirror
Current Time: 19/07/2024 20:48



About/FAQs

Discord