File Size814.8 MB (854,352,575 bytes)
DownloadJheberg
  • 1Fichier
  • Ezfile
  • FileRio
  • Free
  • Hugefiles
  • Jeodrive
  • Letitbit
  • Nitroflare
  • Toutbox
  • Turbobit
  • UpToBox
  • Uplea
  • UploadedTo
| MultiUp | OpenLoad | UsersCloud
Sendspace: Part1, Part2, Part3
SolidFiles: Part1, Part2
HashesCRC32: 9521D159, MD5: 7B9A1102E4D2BD579A466D7F2011B3FA, SHA1: 776B46F3EFEB137FE006F4E254ED5473899DC788, SHA256: 20520C0121C4609EFAA7723BD3031C9CAF74CC4CAF314ADD7C6CD9AD7A426D23, ED2K: C892112094F704CCB7BBC799BD574FC9
Screenshots
screenshotscreenshotscreenshotscreenshotscreenshot
SubtitlesAll Attachments | und [ASS]
Additional Info
General
Unique ID                                : 215041469523523509378384852633848742060 (0xA1C77B04EF2368A583483C36643580AC)
Complete name                            : Koyomimonogatari Episode 1.mkv
Format                                   : Matroska
Format version                           : Version 4 / Version 2
File size                                : 815 MiB
Duration                                 : 13mn 44s
Overall bit rate mode                    : Variable
Overall bit rate                         : 8 288 Kbps
Encoded date                             : UTC 2016-07-06 04:43:58
Writing application                      : mkvmerge v9.0.1 ('Obstacles') 64bit
Writing library                          : libebml v1.3.3 + libmatroska v1.4.4

Video
ID                                       : 1
Format                                   : AVC
Format/Info                              : Advanced Video Codec
Format profile                           : High@L4
Format settings, CABAC                   : Yes
Format settings, ReFrames                : 4 frames
Codec ID                                 : V_MPEG4/ISO/AVC
Duration                                 : 13mn 44s
Bit rate                                 : 6 936 Kbps
Width                                    : 1 920 pixels
Height                                   : 1 080 pixels
Display aspect ratio                     : 16:9
Frame rate mode                          : Constant
Frame rate                               : 23.976 (24000/1001) fps
Color space                              : YUV
Chroma subsampling                       : 4:2:0
Bit depth                                : 8 bits
Scan type                                : Progressive
Bits/(Pixel*Frame)                       : 0.140
Stream size                              : 682 MiB (84%)
Writing library                          : x264 core 148
Encoding settings                        : opencl=1 / cabac=1 / ref=4 / deblock=1:-2:-2 / analyse=0x3:0x113 / me=umh / subme=9 / psy=1 / psy_rd=0.70:0.00 / mixed_ref=0 / me_range=32 / chroma_me=1 / trellis=2 / 8x8dct=1 / cqm=0 / deadzone=21,11 / fast_pskip=1 / chroma_qp_offset=-2 / threads=8 / lookahead_threads=1 / sliced_threads=0 / nr=0 / decimate=1 / interlaced=0 / bluray_compat=0 / constrained_intra=0 / bframes=9 / b_pyramid=2 / b_adapt=2 / b_bias=0 / direct=3 / weightb=1 / open_gop=0 / weightp=2 / keyint=250 / keyint_min=23 / scenecut=40 / intra_refresh=0 / rc_lookahead=40 / rc=crf / mbtree=1 / crf=16.0 / qcomp=0.70 / qpmin=10 / qpmax=20 / qpstep=4 / ip_ratio=1.40 / aq=1:1.00
Default                                  : Yes
Forced                                   : No

Audio
ID                                       : 2
Format                                   : FLAC
Format/Info                              : Free Lossless Audio Codec
Codec ID                                 : A_FLAC
Duration                                 : 13mn 44s
Bit rate mode                            : Variable
Bit rate                                 : 1 350 Kbps
Channel(s)                               : 2 channels
Channel positions                        : Front: L R
Sampling rate                            : 48.0 KHz
Frame rate                               : 10.418 fps (4607 spf)
Bit depth                                : 24 bits
Stream size                              : 133 MiB (16%)
Writing library                          : Lavf56.40.101
Language                                 : Japanese
Default                                  : Yes
Forced                                   : No

Text
ID                                       : 3
Format                                   : ASS
Codec ID                                 : S_TEXT/ASS
Codec ID/Info                            : Advanced Sub Station Alpha
Duration                                 : 13mn 38s
Bit rate                                 : 225 bps
Count of elements                        : 301
Compression mode                         : Lossless
Stream size                              : 22.5 KiB (0%)
Default                                  : Yes
Forced                                   : No

Other Files in this Torrent
Koyomimonogatari Episode 1.mkv
beta
Anime DDL+NZB mirror
Current Time: 12/07/2024 11:22



About/FAQs

Discord