File Size971.5 MB (1,018,699,009 bytes)
DownloadJheberg | MultiUp | OpenLoad | UsersCloud
Sendspace: Part1, Part2, Part3, Part4
SolidFiles: Part1, Part2
HashesCRC32: 437187BB, MD5: F0708EBF061EB4CAA4D4CEF366314B20, SHA1: A88BC07D321456D2BDB6EF758299E3F8B70043A9, SHA256: 2C15AA02B0B9E6E83028603E50A4B4533289FE1EBE87E217C5ACCCE147F08FB6, ED2K: DAD6E44005BBC6EAEA847A033CF9CEA6
Screenshots
screenshotscreenshotscreenshotscreenshotscreenshot
SubtitlesAll Attachments | und [ASS]
Additional Info
General
Unique ID                                : 176462189073650856607895118951176591565 (0x84C161A35BD6B3E8B1668D420BB5D8CD)
Complete name                            : Koyomimonogatari Episode 10.mkv
Format                                   : Matroska
Format version                           : Version 4 / Version 2
File size                                : 972 MiB
Duration                                 : 13mn 34s
Overall bit rate mode                    : Variable
Overall bit rate                         : 10.0 Mbps
Encoded date                             : UTC 2016-07-15 12:05:56
Writing application                      : mkvmerge v9.0.1 ('Obstacles') 64bit
Writing library                          : libebml v1.3.3 + libmatroska v1.4.4

Video
ID                                       : 2
Format                                   : AVC
Format/Info                              : Advanced Video Codec
Format profile                           : High@L4
Format settings, CABAC                   : Yes
Format settings, ReFrames                : 4 frames
Codec ID                                 : V_MPEG4/ISO/AVC
Duration                                 : 13mn 34s
Bit rate                                 : 8 615 Kbps
Width                                    : 1 920 pixels
Height                                   : 1 080 pixels
Display aspect ratio                     : 16:9
Frame rate mode                          : Constant
Frame rate                               : 23.976 (24000/1001) fps
Color space                              : YUV
Chroma subsampling                       : 4:2:0
Bit depth                                : 8 bits
Scan type                                : Progressive
Bits/(Pixel*Frame)                       : 0.173
Stream size                              : 837 MiB (86%)
Writing library                          : x264 core 148
Encoding settings                        : opencl=1 / cabac=1 / ref=4 / deblock=1:-2:-2 / analyse=0x3:0x113 / me=umh / subme=9 / psy=1 / psy_rd=0.70:0.00 / mixed_ref=0 / me_range=32 / chroma_me=1 / trellis=2 / 8x8dct=1 / cqm=0 / deadzone=21,11 / fast_pskip=1 / chroma_qp_offset=-2 / threads=8 / lookahead_threads=1 / sliced_threads=0 / nr=0 / decimate=1 / interlaced=0 / bluray_compat=0 / constrained_intra=0 / bframes=9 / b_pyramid=2 / b_adapt=2 / b_bias=0 / direct=3 / weightb=1 / open_gop=0 / weightp=2 / keyint=250 / keyint_min=23 / scenecut=40 / intra_refresh=0 / rc_lookahead=40 / rc=crf / mbtree=1 / crf=16.0 / qcomp=0.70 / qpmin=10 / qpmax=20 / qpstep=4 / ip_ratio=1.40 / aq=1:1.00
Default                                  : Yes
Forced                                   : No

Audio
ID                                       : 3
Format                                   : FLAC
Format/Info                              : Free Lossless Audio Codec
Codec ID                                 : A_FLAC
Duration                                 : 13mn 34s
Bit rate mode                            : Variable
Bit rate                                 : 1 387 Kbps
Channel(s)                               : 2 channels
Channel positions                        : Front: L R
Sampling rate                            : 48.0 KHz
Frame rate                               : 10.417 fps (4608 spf)
Bit depth                                : 24 bits
Stream size                              : 135 MiB (14%)
Writing library                          : Lavf56.40.101
Language                                 : Japanese
Default                                  : Yes
Forced                                   : No

Text
ID                                       : 1
Format                                   : ASS
Codec ID                                 : S_TEXT/ASS
Codec ID/Info                            : Advanced Sub Station Alpha
Duration                                 : 13mn 29s
Bit rate                                 : 234 bps
Count of elements                        : 286
Compression mode                         : Lossless
Stream size                              : 23.2 KiB (0%)
Default                                  : Yes
Forced                                   : No

Other Files in this Torrent
Koyomimonogatari Episode 10.mkv
beta
Anime DDL+NZB mirror
Current Time: 12/07/2024 11:18



About/FAQs

Discord