File Size828.0 MB (868,247,704 bytes)
DownloadJheberg | MultiUp | OpenLoad | UsersCloud
Sendspace: Part1, Part2, Part3
SolidFiles: Part1, Part2
HashesCRC32: 067AAF2C, MD5: EEB84B4522BAC58A17BBC5C3CD857046, SHA1: 35009E8A0CF08DF8478B2920762A479FCE3E8CDB, SHA256: 6B9BBC7D0D9891006887EC748D6D006664A73944BD1E0012FB7071062A48A5AF, ED2K: 2C6DF577A217DE3F2ADF1A131377DF72
Screenshots
screenshotscreenshotscreenshotscreenshotscreenshot
SubtitlesAll Attachments | und [ASS]
Additional Info
General
Unique ID                                : 252726872162213597987033765456112915803 (0xBE216CD25C668FCEA73F6ADF2FF6155B)
Complete name                            : Koyomimonogatari Episode 4.mkv
Format                                   : Matroska
Format version                           : Version 4 / Version 2
File size                                : 828 MiB
Duration                                 : 12mn 37s
Overall bit rate mode                    : Variable
Overall bit rate                         : 9 171 Kbps
Encoded date                             : UTC 2016-07-06 09:24:56
Writing application                      : mkvmerge v9.0.1 ('Obstacles') 64bit
Writing library                          : libebml v1.3.3 + libmatroska v1.4.4

Video
ID                                       : 1
Format                                   : AVC
Format/Info                              : Advanced Video Codec
Format profile                           : High@L4
Format settings, CABAC                   : Yes
Format settings, ReFrames                : 4 frames
Codec ID                                 : V_MPEG4/ISO/AVC
Duration                                 : 12mn 37s
Bit rate                                 : 7 799 Kbps
Width                                    : 1 920 pixels
Height                                   : 1 080 pixels
Display aspect ratio                     : 16:9
Frame rate mode                          : Constant
Frame rate                               : 23.976 (24000/1001) fps
Color space                              : YUV
Chroma subsampling                       : 4:2:0
Bit depth                                : 8 bits
Scan type                                : Progressive
Bits/(Pixel*Frame)                       : 0.157
Stream size                              : 704 MiB (85%)
Writing library                          : x264 core 148
Encoding settings                        : opencl=1 / cabac=1 / ref=4 / deblock=1:-2:-2 / analyse=0x3:0x113 / me=umh / subme=9 / psy=1 / psy_rd=0.70:0.00 / mixed_ref=0 / me_range=32 / chroma_me=1 / trellis=2 / 8x8dct=1 / cqm=0 / deadzone=21,11 / fast_pskip=1 / chroma_qp_offset=-2 / threads=8 / lookahead_threads=1 / sliced_threads=0 / nr=0 / decimate=1 / interlaced=0 / bluray_compat=0 / constrained_intra=0 / bframes=9 / b_pyramid=2 / b_adapt=2 / b_bias=0 / direct=3 / weightb=1 / open_gop=0 / weightp=2 / keyint=250 / keyint_min=23 / scenecut=40 / intra_refresh=0 / rc_lookahead=40 / rc=crf / mbtree=1 / crf=16.0 / qcomp=0.70 / qpmin=10 / qpmax=20 / qpstep=4 / ip_ratio=1.40 / aq=1:1.00
Default                                  : Yes
Forced                                   : No

Audio
ID                                       : 2
Format                                   : FLAC
Format/Info                              : Free Lossless Audio Codec
Codec ID                                 : A_FLAC
Duration                                 : 12mn 37s
Bit rate mode                            : Variable
Bit rate                                 : 1 369 Kbps
Channel(s)                               : 2 channels
Channel positions                        : Front: L R
Sampling rate                            : 48.0 KHz
Frame rate                               : 10.417 fps (4608 spf)
Bit depth                                : 24 bits
Stream size                              : 124 MiB (15%)
Writing library                          : Lavf56.40.101
Language                                 : Japanese
Default                                  : Yes
Forced                                   : No

Text
ID                                       : 3
Format                                   : ASS
Codec ID                                 : S_TEXT/ASS
Codec ID/Info                            : Advanced Sub Station Alpha
Duration                                 : 12mn 31s
Bit rate                                 : 276 bps
Count of elements                        : 246
Compression mode                         : Lossless
Stream size                              : 25.4 KiB (0%)
Default                                  : Yes
Forced                                   : No

Other Files in this Torrent
Koyomimonogatari Episode 4.mkv
beta
Anime DDL+NZB mirror
Current Time: 19/07/2024 21:53



About/FAQs

Discord