File Size0.989 GB (1,062,210,939 bytes)
DownloadUsersCloud
Jheberg: Part1, Part2
MultiUp: Part1, Part2
Sendspace: Part1, Part2, Part3, Part4
SolidFiles: Part1, Part2, Part3
HashesCRC32: 7AEA9678, MD5: 9F574C25CF19DA142599510B008E4163, SHA1: D9826739DF7B89DBDD974D41B4E78ED35B995FB5, SHA256: 85F49655B7EF2F5B0565505AA053CCDD2FBEC390910173DE1CD24CC21E2DD6AB, ED2K: 6BF8A33D7C1566D2CA1C8C0C022D9E98
Screenshots
screenshotscreenshotscreenshotscreenshotscreenshot
SubtitlesAll Attachments | und [ASS]
Additional Info
General
Unique ID                                : 234970069930375360734288889769938675681 (0xB0C596E10ABBA3C4AE911312FD2867E1)
Complete name                            : Koyomimonogatari Episode 7.mkv
Format                                   : Matroska
Format version                           : Version 4 / Version 2
File size                                : 1 013 MiB
Duration                                 : 12mn 12s
Overall bit rate mode                    : Variable
Overall bit rate                         : 11.6 Mbps
Encoded date                             : UTC 2016-07-15 10:42:59
Writing application                      : mkvmerge v9.0.1 ('Obstacles') 64bit
Writing library                          : libebml v1.3.3 + libmatroska v1.4.4

Video
ID                                       : 2
Format                                   : AVC
Format/Info                              : Advanced Video Codec
Format profile                           : High@L4
Format settings, CABAC                   : Yes
Format settings, ReFrames                : 4 frames
Codec ID                                 : V_MPEG4/ISO/AVC
Duration                                 : 12mn 12s
Bit rate                                 : 10.2 Mbps
Width                                    : 1 920 pixels
Height                                   : 1 080 pixels
Display aspect ratio                     : 16:9
Frame rate mode                          : Constant
Frame rate                               : 23.976 (24000/1001) fps
Color space                              : YUV
Chroma subsampling                       : 4:2:0
Bit depth                                : 8 bits
Scan type                                : Progressive
Bits/(Pixel*Frame)                       : 0.205
Stream size                              : 891 MiB (88%)
Writing library                          : x264 core 148
Encoding settings                        : opencl=1 / cabac=1 / ref=4 / deblock=1:-2:-2 / analyse=0x3:0x113 / me=umh / subme=9 / psy=1 / psy_rd=0.70:0.00 / mixed_ref=0 / me_range=32 / chroma_me=1 / trellis=2 / 8x8dct=1 / cqm=0 / deadzone=21,11 / fast_pskip=1 / chroma_qp_offset=-2 / threads=8 / lookahead_threads=1 / sliced_threads=0 / nr=0 / decimate=1 / interlaced=0 / bluray_compat=0 / constrained_intra=0 / bframes=9 / b_pyramid=2 / b_adapt=2 / b_bias=0 / direct=3 / weightb=1 / open_gop=0 / weightp=2 / keyint=250 / keyint_min=23 / scenecut=40 / intra_refresh=0 / rc_lookahead=40 / rc=crf / mbtree=1 / crf=16.0 / qcomp=0.70 / qpmin=10 / qpmax=20 / qpstep=4 / ip_ratio=1.40 / aq=1:1.00
Default                                  : Yes
Forced                                   : No

Audio
ID                                       : 3
Format                                   : FLAC
Format/Info                              : Free Lossless Audio Codec
Codec ID                                 : A_FLAC
Duration                                 : 12mn 12s
Bit rate mode                            : Variable
Bit rate                                 : 1 392 Kbps
Channel(s)                               : 2 channels
Channel positions                        : Front: L R
Sampling rate                            : 48.0 KHz
Frame rate                               : 10.417 fps (4608 spf)
Bit depth                                : 24 bits
Stream size                              : 122 MiB (12%)
Writing library                          : Lavf56.40.101
Language                                 : Japanese
Default                                  : Yes
Forced                                   : No

Text
ID                                       : 1
Format                                   : ASS
Codec ID                                 : S_TEXT/ASS
Codec ID/Info                            : Advanced Sub Station Alpha
Duration                                 : 12mn 7s
Bit rate                                 : 273 bps
Count of elements                        : 286
Compression mode                         : Lossless
Stream size                              : 24.3 KiB (0%)
Default                                  : Yes
Forced                                   : No

Other Files in this Torrent
Koyomimonogatari Episode 7.mkv
beta
Anime DDL+NZB mirror
Current Time: 19/07/2024 20:42



About/FAQs

Discord