File Size772.1 MB (809,587,900 bytes)
DownloadJheberg
  • 1Fichier
  • Ezfile
  • FileRio
  • Free
  • Hugefiles
  • Jeodrive
  • Letitbit
  • Nitroflare
  • Toutbox
  • Turbobit
  • UpToBox
  • Uplea
  • UploadedTo
| MultiUp | OpenLoad | UsersCloud
Sendspace: Part1, Part2, Part3
SolidFiles: Part1, Part2
HashesCRC32: 7019DD0F, MD5: FBF2D9481E4F4A804A253F291F46AE6E, SHA1: E9303112DFB7001EBEFD636A1BF28CA06EF01445, SHA256: 99730E8E2998D9C59275AB1A434EF68C840EE9C7A8283AB30294F574D23CE862, ED2K: 35E9B75FDEC6EE8A605C652050BB164A
Screenshots
screenshotscreenshotscreenshotscreenshotscreenshot
SubtitlesAll Attachments | und [ASS]
Additional Info
General
Unique ID                                : 187189931247992659277576238014760619569 (0x8CD37829CD01B440900FAFB88CF60E31)
Complete name                            : Koyomimonogatari Episode 2.mkv
Format                                   : Matroska
Format version                           : Version 4 / Version 2
File size                                : 772 MiB
Duration                                 : 13mn 44s
Overall bit rate mode                    : Variable
Overall bit rate                         : 7 854 Kbps
Encoded date                             : UTC 2016-07-06 05:01:41
Writing application                      : mkvmerge v9.0.1 ('Obstacles') 64bit
Writing library                          : libebml v1.3.3 + libmatroska v1.4.4

Video
ID                                       : 2
Format                                   : AVC
Format/Info                              : Advanced Video Codec
Format profile                           : High@L4
Format settings, CABAC                   : Yes
Format settings, ReFrames                : 4 frames
Codec ID                                 : V_MPEG4/ISO/AVC
Duration                                 : 13mn 44s
Bit rate                                 : 6 477 Kbps
Width                                    : 1 920 pixels
Height                                   : 1 080 pixels
Display aspect ratio                     : 16:9
Frame rate mode                          : Constant
Frame rate                               : 23.976 (24000/1001) fps
Color space                              : YUV
Chroma subsampling                       : 4:2:0
Bit depth                                : 8 bits
Scan type                                : Progressive
Bits/(Pixel*Frame)                       : 0.130
Stream size                              : 637 MiB (82%)
Writing library                          : x264 core 148
Encoding settings                        : opencl=1 / cabac=1 / ref=4 / deblock=1:-2:-2 / analyse=0x3:0x113 / me=umh / subme=9 / psy=1 / psy_rd=0.70:0.00 / mixed_ref=0 / me_range=32 / chroma_me=1 / trellis=2 / 8x8dct=1 / cqm=0 / deadzone=21,11 / fast_pskip=1 / chroma_qp_offset=-2 / threads=8 / lookahead_threads=1 / sliced_threads=0 / nr=0 / decimate=1 / interlaced=0 / bluray_compat=0 / constrained_intra=0 / bframes=9 / b_pyramid=2 / b_adapt=2 / b_bias=0 / direct=3 / weightb=1 / open_gop=0 / weightp=2 / keyint=250 / keyint_min=23 / scenecut=40 / intra_refresh=0 / rc_lookahead=40 / rc=crf / mbtree=1 / crf=16.0 / qcomp=0.70 / qpmin=10 / qpmax=20 / qpstep=4 / ip_ratio=1.40 / aq=1:1.00
Default                                  : Yes
Forced                                   : No

Audio
ID                                       : 3
Format                                   : FLAC
Format/Info                              : Free Lossless Audio Codec
Codec ID                                 : A_FLAC
Duration                                 : 13mn 44s
Bit rate mode                            : Variable
Bit rate                                 : 1 375 Kbps
Channel(s)                               : 2 channels
Channel positions                        : Front: L R
Sampling rate                            : 48.0 KHz
Frame rate                               : 10.418 fps (4607 spf)
Bit depth                                : 24 bits
Stream size                              : 135 MiB (18%)
Writing library                          : Lavf56.40.101
Language                                 : Japanese
Default                                  : Yes
Forced                                   : No

Text
ID                                       : 1
Format                                   : ASS
Codec ID                                 : S_TEXT/ASS
Codec ID/Info                            : Advanced Sub Station Alpha
Duration                                 : 13mn 29s
Bit rate                                 : 207 bps
Count of elements                        : 220
Compression mode                         : Lossless
Stream size                              : 20.5 KiB (0%)
Default                                  : Yes
Forced                                   : No

Other Files in this Torrent
Koyomimonogatari Episode 2.mkv
beta
Anime DDL+NZB mirror
Current Time: 19/07/2024 21:34



About/FAQs

Discord