File Size1.219 GB (1,308,676,918 bytes)
DownloadJheberg: Part1, Part2
MultiUp: Part1, Part2
Sendspace: Part1, Part2, Part3, Part4, Part5
SolidFiles: Part1, Part2, Part3
UsersCloud: Part1, Part2
HashesCRC32: 17594C3A, MD5: F4E21B8BA116B4D7D8936F7F15C723B1, SHA1: EBE2CA4D7B132A5E26E83B5A7A7A99773CB8AD12, SHA256: 12D14EBF1F46847BAB367A2A9189C72B908FA2ECA6A1C9E4B4012CBCEF17109B, ED2K: 8AE172C3E213CA17DBB90720A7EAD4F2
Screenshots
screenshotscreenshotscreenshotscreenshotscreenshot
SubtitlesAll Attachments | und [ASS]
Additional Info
General
Unique ID                                : 203169580401505543960415120761497854883 (0x98D909B1BE12F6549D49E8B6055823A3)
Complete name                            : Koyomimonogatari Episode 6.mkv
Format                                   : Matroska
Format version                           : Version 4 / Version 2
File size                                : 1.22 GiB
Duration                                 : 15mn 2s
Overall bit rate mode                    : Variable
Overall bit rate                         : 11.6 Mbps
Encoded date                             : UTC 2016-07-15 11:01:19
Writing application                      : mkvmerge v9.0.1 ('Obstacles') 64bit
Writing library                          : libebml v1.3.3 + libmatroska v1.4.4

Video
ID                                       : 1
Format                                   : AVC
Format/Info                              : Advanced Video Codec
Format profile                           : High@L4
Format settings, CABAC                   : Yes
Format settings, ReFrames                : 4 frames
Codec ID                                 : V_MPEG4/ISO/AVC
Duration                                 : 15mn 2s
Bit rate                                 : 10.2 Mbps
Width                                    : 1 920 pixels
Height                                   : 1 080 pixels
Display aspect ratio                     : 16:9
Frame rate mode                          : Constant
Frame rate                               : 23.976 (24000/1001) fps
Color space                              : YUV
Chroma subsampling                       : 4:2:0
Bit depth                                : 8 bits
Scan type                                : Progressive
Bits/(Pixel*Frame)                       : 0.205
Stream size                              : 1.07 GiB (88%)
Writing library                          : x264 core 148
Encoding settings                        : opencl=1 / cabac=1 / ref=4 / deblock=1:-2:-2 / analyse=0x3:0x113 / me=umh / subme=9 / psy=1 / psy_rd=0.70:0.00 / mixed_ref=0 / me_range=32 / chroma_me=1 / trellis=2 / 8x8dct=1 / cqm=0 / deadzone=21,11 / fast_pskip=1 / chroma_qp_offset=-2 / threads=8 / lookahead_threads=1 / sliced_threads=0 / nr=0 / decimate=1 / interlaced=0 / bluray_compat=0 / constrained_intra=0 / bframes=9 / b_pyramid=2 / b_adapt=2 / b_bias=0 / direct=3 / weightb=1 / open_gop=0 / weightp=2 / keyint=250 / keyint_min=23 / scenecut=40 / intra_refresh=0 / rc_lookahead=40 / rc=crf / mbtree=1 / crf=16.0 / qcomp=0.70 / qpmin=10 / qpmax=20 / qpstep=4 / ip_ratio=1.40 / aq=1:1.00
Default                                  : Yes
Forced                                   : No

Audio
ID                                       : 2
Format                                   : FLAC
Format/Info                              : Free Lossless Audio Codec
Codec ID                                 : A_FLAC
Duration                                 : 15mn 2s
Bit rate mode                            : Variable
Bit rate                                 : 1 393 Kbps
Channel(s)                               : 2 channels
Channel positions                        : Front: L R
Sampling rate                            : 48.0 KHz
Frame rate                               : 10.417 fps (4608 spf)
Bit depth                                : 24 bits
Stream size                              : 150 MiB (12%)
Writing library                          : Lavf56.40.101
Language                                 : Japanese
Default                                  : Yes
Forced                                   : No

Text
ID                                       : 3
Format                                   : ASS
Codec ID                                 : S_TEXT/ASS
Codec ID/Info                            : Advanced Sub Station Alpha
Duration                                 : 14mn 45s
Bit rate                                 : 220 bps
Count of elements                        : 239
Compression mode                         : Lossless
Stream size                              : 23.8 KiB (0%)
Default                                  : Yes
Forced                                   : No

Other Files in this Torrent
Koyomimonogatari Episode 6.mkv
beta
Anime DDL+NZB mirror
Current Time: 19/07/2024 21:36



About/FAQs

Discord