File Size487.3 MB (510,962,844 bytes)
DownloadClickNUpload | DownloadGG | GoFile | KrakenFiles | MdiaLoad | MultiUp
  • BdUpload
  • DownAce
  • Fichier
  • FileCloud
  • Filerio
  • FilesCdn
  • IndiShare
  • Kbagi
  • Turbobit
  • UpToBox
  • Uppit
HashesCRC32: 79831229, MD5: F9281EB84572742608872BE7066E5E80, SHA1: 93CD7770834B221B202F50C7CA92D840DC58C2DA, SHA256: F579BD028CE65192D97AD37E818DE9742D357F36A9C318128AF978F7CDDFD8E1, ED2K: 81214A48D9DD07F88C25AEB52367922A
Screenshots
screenshotscreenshotscreenshotscreenshotscreenshot
SubtitlesAll Attachments | English Subtitles [eng, ASS]
Additional Info
General
Unique ID                                : 42811565625043056071096009449934543673 (0x203535269B3D421C2D8FDF1BD929DB39)
Complete name                            : 959.mkv
Format                                   : Matroska
Format version                           : Version 4
File size                                : 487 MiB
Duration                                 : 23 min 52 s
Overall bit rate                         : 2 854 kb/s
Writing application                      : Lavf60.5.100
Writing library                          : Lavf60.5.100
ErrorDetectionType                       : Per level 1

Video
ID                                       : 1
Format                                   : AVC
Format/Info                              : Advanced Video Codec
Format profile                           : High@L3.2
Format settings                          : CABAC / 5 Ref Frames
Format settings, CABAC                   : Yes
Format settings, Reference frames        : 5 frames
Codec ID                                 : V_MPEG4/ISO/AVC
Duration                                 : 23 min 52 s
Bit rate                                 : 5 109 kb/s
Width                                    : 1 280 pixels
Height                                   : 720 pixels
Display aspect ratio                     : 16:9
Frame rate mode                          : Variable
Frame rate                               : 29.970 (29970/1000) FPS
Color space                              : YUV
Chroma subsampling                       : 4:2:0
Bit depth                                : 8 bits
Scan type                                : Progressive
Bits/(Pixel*Frame)                       : 0.185
Stream size                              : 872 MiB
Title                                    : [Zoku] Rip
Writing library                          : x264 core 164 r3095M baee400
Encoding settings                        : cabac=1 / ref=5 / deblock=1:0:0 / analyse=0x3:0x113 / me=hex / subme=8 / psy=1 / psy_rd=1.00:0.00 / mixed_ref=1 / me_range=16 / chroma_me=1 / trellis=2 / 8x8dct=1 / cqm=0 / deadzone=21,11 / fast_pskip=1 / chroma_qp_offset=-2 / threads=4 / lookahead_threads=1 / sliced_threads=0 / nr=0 / decimate=1 / interlaced=0 / bluray_compat=0 / constrained_intra=0 / bframes=3 / b_pyramid=2 / b_adapt=1 / b_bias=0 / direct=3 / weightb=1 / open_gop=0 / weightp=2 / keyint=250 / keyint_min=25 / scenecut=40 / intra_refresh=0 / rc_lookahead=50 / rc=crf / mbtree=1 / crf=18.0 / qcomp=0.60 / qpmin=0 / qpmax=69 / qpstep=4 / ip_ratio=1.40 / aq=1:1.00
Default                                  : No
Forced                                   : No
Color range                              : Limited
Color primaries                          : BT.709
Transfer characteristics                 : BT.709
Matrix coefficients                      : BT.709

Audio
ID                                       : 2
Format                                   : AAC LC
Format/Info                              : Advanced Audio Codec Low Complexity
Codec ID                                 : A_AAC-2
Duration                                 : 23 min 51 s
Bit rate                                 : 259 kb/s
Channel(s)                               : 2 channels
Channel layout                           : L R
Sampling rate                            : 48.0 kHz
Frame rate                               : 46.875 FPS (1024 SPF)
Compression mode                         : Lossy
Delay relative to video                  : -243 ms
Stream size                              : 44.3 MiB (9%)
Title                                    : English Audio
Language                                 : English
Default                                  : No
Forced                                   : No

Text
ID                                       : 3
Format                                   : ASS
Codec ID                                 : S_TEXT/ASS
Codec ID/Info                            : Advanced Sub Station Alpha
Duration                                 : 23 min 38 s
Bit rate                                 : 123 b/s
Count of elements                        : 333
Compression mode                         : Lossless
Stream size                              : 21.5 KiB (0%)
Title                                    : English Subtitles
Language                                 : English
Default                                  : Yes
Forced                                   : No

Other Files in this Torrent
959.mkv
beta
Anime DDL+NZB mirror
Current Time: 24/06/2024 07:45



About/FAQs

Discord