File Size464.1 MB (486,661,313 bytes)
DownloadClickNUpload | DownloadGG | GoFile | KrakenFiles | MdiaLoad | MultiUp
  • BdUpload
  • DownAce
  • Fichier
  • FileCloud
  • Filerio
  • FilesCdn
  • IndiShare
  • Kbagi
  • Turbobit
  • UpToBox
  • Uppit
HashesCRC32: B0AEC51A, MD5: 37BC3D75AFBDAC85CF34A733CFB11304, SHA1: A0B3B114619B17A82CA2B639BECDF85BE6CE59A4, SHA256: 07A4D523D56F45E5FC166CA67BE2CA7E325E3BBB76B6005FC8DE17F47C4029E7, ED2K: 34D85667DCB23A1DDD8C01EB7E14D6F0
Screenshots
screenshotscreenshotscreenshotscreenshotscreenshot
SubtitlesAll Attachments | English Subtitles [eng, ASS]
Additional Info
General
Unique ID                                : 172428846828215229522477356161645428978 (0x81B896831F3741B4E1C71561EC4040F2)
Complete name                            : 958.mkv
Format                                   : Matroska
Format version                           : Version 4
File size                                : 464 MiB
Duration                                 : 23 min 51 s
Overall bit rate                         : 2 719 kb/s
Writing application                      : Lavf60.5.100
Writing library                          : Lavf60.5.100
ErrorDetectionType                       : Per level 1

Video
ID                                       : 1
Format                                   : AVC
Format/Info                              : Advanced Video Codec
Format profile                           : High@L3.2
Format settings                          : CABAC / 5 Ref Frames
Format settings, CABAC                   : Yes
Format settings, Reference frames        : 5 frames
Codec ID                                 : V_MPEG4/ISO/AVC
Duration                                 : 23 min 51 s
Bit rate                                 : 4 960 kb/s
Width                                    : 1 280 pixels
Height                                   : 720 pixels
Display aspect ratio                     : 16:9
Frame rate mode                          : Variable
Frame rate                               : 29.970 (29970/1000) FPS
Color space                              : YUV
Chroma subsampling                       : 4:2:0
Bit depth                                : 8 bits
Scan type                                : Progressive
Bits/(Pixel*Frame)                       : 0.180
Stream size                              : 846 MiB
Title                                    : [Zoku] Rip
Writing library                          : x264 core 164 r3095M baee400
Encoding settings                        : cabac=1 / ref=5 / deblock=1:0:0 / analyse=0x3:0x113 / me=hex / subme=8 / psy=1 / psy_rd=1.00:0.00 / mixed_ref=1 / me_range=16 / chroma_me=1 / trellis=2 / 8x8dct=1 / cqm=0 / deadzone=21,11 / fast_pskip=1 / chroma_qp_offset=-2 / threads=4 / lookahead_threads=1 / sliced_threads=0 / nr=0 / decimate=1 / interlaced=0 / bluray_compat=0 / constrained_intra=0 / bframes=3 / b_pyramid=2 / b_adapt=1 / b_bias=0 / direct=3 / weightb=1 / open_gop=0 / weightp=2 / keyint=250 / keyint_min=25 / scenecut=40 / intra_refresh=0 / rc_lookahead=50 / rc=crf / mbtree=1 / crf=18.0 / qcomp=0.60 / qpmin=0 / qpmax=69 / qpstep=4 / ip_ratio=1.40 / aq=1:1.00
Default                                  : No
Forced                                   : No
Color range                              : Limited
Color primaries                          : BT.709
Transfer characteristics                 : BT.709
Matrix coefficients                      : BT.709

Audio
ID                                       : 2
Format                                   : AAC LC
Format/Info                              : Advanced Audio Codec Low Complexity
Codec ID                                 : A_AAC-2
Duration                                 : 23 min 51 s
Bit rate                                 : 265 kb/s
Channel(s)                               : 2 channels
Channel layout                           : L R
Sampling rate                            : 48.0 kHz
Frame rate                               : 46.875 FPS (1024 SPF)
Compression mode                         : Lossy
Delay relative to video                  : -309 ms
Stream size                              : 44.4 MiB (10%)
Title                                    : English Audio
Language                                 : English
Default                                  : No
Forced                                   : No

Text
ID                                       : 3
Format                                   : ASS
Codec ID                                 : S_TEXT/ASS
Codec ID/Info                            : Advanced Sub Station Alpha
Duration                                 : 23 min 38 s
Bit rate                                 : 129 b/s
Count of elements                        : 313
Compression mode                         : Lossless
Stream size                              : 22.5 KiB (0%)
Title                                    : English Subtitles
Language                                 : English
Default                                  : Yes
Forced                                   : No

Other Files in this Torrent
958.mkv
beta
Anime DDL+NZB mirror
Current Time: 24/06/2024 06:17



About/FAQs

Discord