File Size529.2 MB (554,865,872 bytes)
DownloadClickNUpload | DownloadGG | GoFile | KrakenFiles | MdiaLoad
MultiUp: Part1
  • BdUpload
  • DownAce
  • Fichier
  • FileCloud
  • Filerio
  • FilesCdn
  • IndiShare
  • Kbagi
  • Turbobit
  • UpToBox
  • Uppit
, Part2
  • BdUpload
  • DownAce
  • Fichier
  • FileCloud
  • Filerio
  • FilesCdn
  • IndiShare
  • Kbagi
  • Turbobit
  • UpToBox
  • Uppit
HashesCRC32: 6B114D8A, MD5: 162EDFD2A4B30AF05EAE499641A31C7D, SHA1: C2BE6B4E4B926018EDCF45E6F744B4450038774B, SHA256: 15F8C45277C06BB61D8C2D959A484FD8C4AA029E2FC0B8D4378CA4ACAEF9820E, ED2K: 831CA6F237D634C64FFE75CFE5CAFFB5
Screenshots
screenshotscreenshotscreenshotscreenshotscreenshot
SubtitlesAll Attachments | English Subtitles [eng, ASS]
Additional Info
General
Unique ID                                : 251986069459919979798752491243227479205 (0xBD92C06DB73E6371BEC7C21AD7C27CA5)
Complete name                            : 955.mkv
Format                                   : Matroska
Format version                           : Version 4
File size                                : 529 MiB
Duration                                 : 23 min 51 s
Overall bit rate                         : 3 100 kb/s
Writing application                      : Lavf60.5.100
Writing library                          : Lavf60.5.100
ErrorDetectionType                       : Per level 1

Video
ID                                       : 1
Format                                   : AVC
Format/Info                              : Advanced Video Codec
Format profile                           : High@L3.2
Format settings                          : CABAC / 5 Ref Frames
Format settings, CABAC                   : Yes
Format settings, Reference frames        : 5 frames
Codec ID                                 : V_MPEG4/ISO/AVC
Duration                                 : 23 min 51 s
Bit rate                                 : 4 997 kb/s
Width                                    : 1 280 pixels
Height                                   : 720 pixels
Display aspect ratio                     : 16:9
Frame rate mode                          : Variable
Frame rate                               : 29.970 (29970/1000) FPS
Color space                              : YUV
Chroma subsampling                       : 4:2:0
Bit depth                                : 8 bits
Scan type                                : Progressive
Bits/(Pixel*Frame)                       : 0.181
Stream size                              : 853 MiB
Title                                    : [Zoku] Rip
Writing library                          : x264 core 164 r3095M baee400
Encoding settings                        : cabac=1 / ref=5 / deblock=1:0:0 / analyse=0x3:0x113 / me=hex / subme=8 / psy=1 / psy_rd=1.00:0.00 / mixed_ref=1 / me_range=16 / chroma_me=1 / trellis=2 / 8x8dct=1 / cqm=0 / deadzone=21,11 / fast_pskip=1 / chroma_qp_offset=-2 / threads=4 / lookahead_threads=1 / sliced_threads=0 / nr=0 / decimate=1 / interlaced=0 / bluray_compat=0 / constrained_intra=0 / bframes=3 / b_pyramid=2 / b_adapt=1 / b_bias=0 / direct=3 / weightb=1 / open_gop=0 / weightp=2 / keyint=250 / keyint_min=25 / scenecut=40 / intra_refresh=0 / rc_lookahead=50 / rc=crf / mbtree=1 / crf=18.0 / qcomp=0.60 / qpmin=0 / qpmax=69 / qpstep=4 / ip_ratio=1.40 / aq=1:1.00
Default                                  : No
Forced                                   : No
Color range                              : Limited
Color primaries                          : BT.709
Transfer characteristics                 : BT.709
Matrix coefficients                      : BT.709

Audio
ID                                       : 2
Format                                   : AAC LC
Format/Info                              : Advanced Audio Codec Low Complexity
Codec ID                                 : A_AAC-2
Duration                                 : 23 min 51 s
Bit rate                                 : 259 kb/s
Channel(s)                               : 2 channels
Channel layout                           : L R
Sampling rate                            : 48.0 kHz
Frame rate                               : 46.875 FPS (1024 SPF)
Compression mode                         : Lossy
Delay relative to video                  : -441 ms
Stream size                              : 44.2 MiB (8%)
Title                                    : English Audio
Language                                 : English
Default                                  : No
Forced                                   : No

Text
ID                                       : 3
Format                                   : ASS
Codec ID                                 : S_TEXT/ASS
Codec ID/Info                            : Advanced Sub Station Alpha
Duration                                 : 23 min 38 s
Bit rate                                 : 131 b/s
Count of elements                        : 356
Compression mode                         : Lossless
Stream size                              : 22.7 KiB (0%)
Title                                    : English Subtitles
Language                                 : English
Default                                  : Yes
Forced                                   : No

Other Files in this Torrent
955.mkv
beta
Anime DDL+NZB mirror
Current Time: 24/06/2024 06:16



About/FAQs

Discord