File Size201.5 MB (211,339,762 bytes)
DownloadAnonFiles | ClickNUpload | DropAPK | Free | MultiUp
  • BdUpload
  • DownAce
  • Fichier
  • FileCloud
  • Filerio
  • FilesCdn
  • IndiShare
  • Kbagi
  • Turbobit
  • UpToBox
  • Uppit
| Sendspace | SolidFiles | ZippyShare
HashesCRC32: D5109876, MD5: 6E38D89293AA179863B2DA96AE6DEDF7, SHA1: 7C19CFD950022A862D76DCA24E79635C53B8255A, SHA256: BB006B3F1A19935A204AA95F9228E3B22C686D3FA4D1BABCC7530454AF486129, ED2K: 0183F848CF79316101ADC97370E16A4B
Screenshots
screenshotscreenshotscreenshotscreenshotscreenshot
Additional Info
General
Complete name                            : 11.mp4
Format                                   : MPEG-4
Format profile                           : Base Media / Version 2
Codec ID                                 : mp42 (isom/iso2/mp41)
File size                                : 202 MiB
Duration                                 : 23 min 40 s
Overall bit rate                         : 1 190 kb/s
Encoded date                             : UTC 2020-08-13 20:06:05
Tagged date                              : UTC 2020-08-13 20:06:05
Writing application                      : HandBrake 20200804121537-7388225bc-master 2020080401

Video
ID                                       : 1
Format                                   : HEVC
Format/Info                              : High Efficiency Video Coding
Format profile                           : Main@L6.2@Main
Codec ID                                 : hvc1
Codec ID/Info                            : High Efficiency Video Coding
Duration                                 : 23 min 40 s
Bit rate                                 : 850 kb/s
Width                                    : 1 920 pixels
Height                                   : 1 080 pixels
Display aspect ratio                     : 16:9
Frame rate mode                          : Variable
Frame rate                               : 23.976 (24000/1001) FPS
Minimum frame rate                       : 23.974 FPS
Maximum frame rate                       : 23.981 FPS
Standard                                 : Component
Color space                              : YUV
Chroma subsampling                       : 4:2:0
Bit depth                                : 8 bits
Bits/(Pixel*Frame)                       : 0.017
Stream size                              : 144 MiB (71%)
Encoded date                             : UTC 2020-08-13 20:06:05
Tagged date                              : UTC 2020-08-13 20:06:05
Color range                              : Limited
Codec configuration box                  : hvcC

Audio
ID                                       : 2
Format                                   : AAC LC
Format/Info                              : Advanced Audio Codec Low Complexity
Codec ID                                 : mp4a-40-2
Duration                                 : 23 min 40 s
Bit rate mode                            : Constant
Bit rate                                 : 336 kb/s
Channel(s)                               : 2 channels
Channel layout                           : L R
Sampling rate                            : 44.1 kHz
Frame rate                               : 43.066 FPS (1024 SPF)
Compression mode                         : Lossy
Stream size                              : 56.8 MiB (28%)
Title                                    : Stereo
Language                                 : Japanese
Default                                  : Yes
Alternate group                          : 1
Encoded date                             : UTC 2020-08-13 20:06:05
Tagged date                              : UTC 2020-08-13 20:06:05

Other Files in this Torrent
11.mp4
beta
Anime DDL+NZB mirror
Current Time: 25/01/2021 03:09



About/FAQs