File Size382.0 MB (400,597,661 bytes)
DownloadAnonFiles | ClickNUpload | DropAPK | Free | MultiUp
  • BdUpload
  • DownAce
  • Fichier
  • FileCloud
  • Filerio
  • FilesCdn
  • IndiShare
  • Kbagi
  • Turbobit
  • UpToBox
  • Uppit
| SolidFiles | ZippyShare
Sendspace: Part1, Part2
HashesCRC32: 3CE97C09, MD5: 7B1F681CE2023EED38B9B33C72BF1D5D, SHA1: A8FC1915DC3B1568910B1340A0176B72E5A75311, SHA256: 05D53EDB4FCD1E409C59853D694FD3D867BA56BDEFEF230D82E54DE663EFFF33, ED2K: 6416FD3A5E8280CA019F0DD1B5D7E4F6
Screenshots
screenshotscreenshotscreenshotscreenshotscreenshot
Additional Info
General
Complete name                            : 06.mp4
Format                                   : MPEG-4
Format profile                           : Base Media / Version 2
Codec ID                                 : mp42 (isom/iso2/mp41)
File size                                : 382 MiB
Duration                                 : 23 min 40 s
Overall bit rate                         : 2 257 kb/s
Encoded date                             : UTC 2020-08-13 19:43:22
Tagged date                              : UTC 2020-08-13 19:43:22
Writing application                      : HandBrake 20200804121537-7388225bc-master 2020080401

Video
ID                                       : 1
Format                                   : HEVC
Format/Info                              : High Efficiency Video Coding
Format profile                           : Main@L6.2@Main
Codec ID                                 : hvc1
Codec ID/Info                            : High Efficiency Video Coding
Duration                                 : 23 min 40 s
Bit rate                                 : 1 870 kb/s
Width                                    : 1 920 pixels
Height                                   : 1 080 pixels
Display aspect ratio                     : 16:9
Frame rate mode                          : Variable
Frame rate                               : 23.976 (24000/1001) FPS
Minimum frame rate                       : 23.974 FPS
Maximum frame rate                       : 23.981 FPS
Standard                                 : Component
Color space                              : YUV
Chroma subsampling                       : 4:2:0
Bit depth                                : 8 bits
Bits/(Pixel*Frame)                       : 0.038
Stream size                              : 317 MiB (83%)
Encoded date                             : UTC 2020-08-13 19:43:22
Tagged date                              : UTC 2020-08-13 19:43:22
Color range                              : Limited
Codec configuration box                  : hvcC

Audio
ID                                       : 2
Format                                   : AAC LC
Format/Info                              : Advanced Audio Codec Low Complexity
Codec ID                                 : mp4a-40-2
Duration                                 : 23 min 40 s
Bit rate mode                            : Constant
Bit rate                                 : 384 kb/s
Channel(s)                               : 2 channels
Channel layout                           : L R
Sampling rate                            : 44.1 kHz
Frame rate                               : 43.066 FPS (1024 SPF)
Compression mode                         : Lossy
Stream size                              : 64.5 MiB (17%)
Title                                    : Stereo
Language                                 : Japanese
Default                                  : Yes
Alternate group                          : 1
Encoded date                             : UTC 2020-08-13 19:43:22
Tagged date                              : UTC 2020-08-13 19:43:22

Other Files in this Torrent
06.mp4
beta
Anime DDL+NZB mirror
Current Time: 25/01/2021 04:17



About/FAQs