File Size312.9 MB (328,101,893 bytes)
DownloadAnonFiles | ClickNUpload | DropAPK | Free | MultiUp
  • BdUpload
  • DownAce
  • Fichier
  • FileCloud
  • Filerio
  • FilesCdn
  • IndiShare
  • Kbagi
  • Turbobit
  • UpToBox
  • Uppit
| SolidFiles | ZippyShare
Sendspace: Part1, Part2
HashesCRC32: 258255DE, MD5: 0E67FEBF084632E9E10FD96C041B6C07, SHA1: AE8E2419B725C25B5A7EBA8BE4D994DA19D1BAB5, SHA256: 1E1DCBD082DADAF9BF781DF34E968A7CCFCE5E05C05BC095E825188B9484046D, ED2K: 81C274B3DF2F28A98C1083C3B4CB3D7F
Screenshots
screenshotscreenshotscreenshotscreenshotscreenshot
Additional Info
General
Complete name                            : 08.mp4
Format                                   : MPEG-4
Format profile                           : Base Media / Version 2
Codec ID                                 : mp42 (isom/iso2/mp41)
File size                                : 313 MiB
Duration                                 : 23 min 40 s
Overall bit rate                         : 1 848 kb/s
Encoded date                             : UTC 2020-08-13 19:52:35
Tagged date                              : UTC 2020-08-13 19:52:35
Writing application                      : HandBrake 20200804121537-7388225bc-master 2020080401

Video
ID                                       : 1
Format                                   : HEVC
Format/Info                              : High Efficiency Video Coding
Format profile                           : Main@L6.2@Main
Codec ID                                 : hvc1
Codec ID/Info                            : High Efficiency Video Coding
Duration                                 : 23 min 40 s
Bit rate                                 : 1 507 kb/s
Width                                    : 1 920 pixels
Height                                   : 1 080 pixels
Display aspect ratio                     : 16:9
Frame rate mode                          : Variable
Frame rate                               : 23.976 (24000/1001) FPS
Minimum frame rate                       : 23.974 FPS
Maximum frame rate                       : 23.981 FPS
Standard                                 : Component
Color space                              : YUV
Chroma subsampling                       : 4:2:0
Bit depth                                : 8 bits
Bits/(Pixel*Frame)                       : 0.030
Stream size                              : 255 MiB (82%)
Encoded date                             : UTC 2020-08-13 19:52:35
Tagged date                              : UTC 2020-08-13 19:52:35
Color range                              : Limited
Codec configuration box                  : hvcC

Audio
ID                                       : 2
Format                                   : AAC LC
Format/Info                              : Advanced Audio Codec Low Complexity
Codec ID                                 : mp4a-40-2
Duration                                 : 23 min 40 s
Bit rate mode                            : Constant
Bit rate                                 : 336 kb/s
Channel(s)                               : 2 channels
Channel layout                           : L R
Sampling rate                            : 44.1 kHz
Frame rate                               : 43.066 FPS (1024 SPF)
Compression mode                         : Lossy
Stream size                              : 56.8 MiB (18%)
Title                                    : Stereo
Language                                 : Japanese
Default                                  : Yes
Alternate group                          : 1
Encoded date                             : UTC 2020-08-13 19:52:35
Tagged date                              : UTC 2020-08-13 19:52:35

Other Files in this Torrent
08.mp4
beta
Anime DDL+NZB mirror
Current Time: 16/01/2021 12:44



About/FAQs