File Size171.1 MB (179,461,163 bytes)
DownloadAnonFiles | ClickNUpload | DropAPK | Free | MultiUp
  • BdUpload
  • DownAce
  • Fichier
  • FileCloud
  • Filerio
  • FilesCdn
  • IndiShare
  • Kbagi
  • Turbobit
  • UpToBox
  • Uppit
| Sendspace | SolidFiles | ZippyShare
HashesCRC32: 382441EB, MD5: F7355848A0038717168C681378771B59, SHA1: 2DA8F3865AACFABB83A8EBA68998E9E42364C78C, SHA256: 99BB60EA1914AAC48684F223D2D9A7340FA55C693608714240C7D05857A41E43, ED2K: D15AADCD4AA08F2F9131CC8279219680
Screenshots
screenshotscreenshotscreenshotscreenshotscreenshot
Additional Info
General
Complete name                            : 10.mp4
Format                                   : MPEG-4
Format profile                           : Base Media / Version 2
Codec ID                                 : mp42 (isom/iso2/mp41)
File size                                : 171 MiB
Duration                                 : 23 min 40 s
Overall bit rate                         : 1 011 kb/s
Encoded date                             : UTC 2020-08-13 20:01:25
Tagged date                              : UTC 2020-08-13 20:01:25
Writing application                      : HandBrake 20200804121537-7388225bc-master 2020080401

Video
ID                                       : 1
Format                                   : HEVC
Format/Info                              : High Efficiency Video Coding
Format profile                           : Main@L6.2@Main
Codec ID                                 : hvc1
Codec ID/Info                            : High Efficiency Video Coding
Duration                                 : 23 min 40 s
Bit rate                                 : 698 kb/s
Width                                    : 1 920 pixels
Height                                   : 1 080 pixels
Display aspect ratio                     : 16:9
Frame rate mode                          : Variable
Frame rate                               : 23.976 (24000/1001) FPS
Minimum frame rate                       : 23.974 FPS
Maximum frame rate                       : 23.981 FPS
Standard                                 : Component
Color space                              : YUV
Chroma subsampling                       : 4:2:0
Bit depth                                : 8 bits
Bits/(Pixel*Frame)                       : 0.014
Stream size                              : 118 MiB (69%)
Encoded date                             : UTC 2020-08-13 20:01:25
Tagged date                              : UTC 2020-08-13 20:01:25
Color range                              : Limited
Codec configuration box                  : hvcC

Audio
ID                                       : 2
Format                                   : AAC LC
Format/Info                              : Advanced Audio Codec Low Complexity
Codec ID                                 : mp4a-40-2
Duration                                 : 23 min 40 s
Bit rate mode                            : Constant
Bit rate                                 : 307 kb/s
Channel(s)                               : 2 channels
Channel layout                           : L R
Sampling rate                            : 44.1 kHz
Frame rate                               : 43.066 FPS (1024 SPF)
Compression mode                         : Lossy
Stream size                              : 52.0 MiB (30%)
Title                                    : Stereo
Language                                 : Japanese
Default                                  : Yes
Alternate group                          : 1
Encoded date                             : UTC 2020-08-13 20:01:25
Tagged date                              : UTC 2020-08-13 20:01:25

Other Files in this Torrent
10.mp4
beta
Anime DDL+NZB mirror
Current Time: 25/01/2021 04:24



About/FAQs