File Size268.3 MB (281,300,138 bytes)
DownloadAnonFiles | ClickNUpload | DropAPK | Free | MultiUp
  • BdUpload
  • DownAce
  • Fichier
  • FileCloud
  • Filerio
  • FilesCdn
  • IndiShare
  • Kbagi
  • Turbobit
  • UpToBox
  • Uppit
| Sendspace | SolidFiles | ZippyShare
HashesCRC32: ABAD97E5, MD5: A693369BA6F75A72F1DAA7E2CE3F4EB3, SHA1: 3E6F4DFCAAD481A5007E2F096C6C21A5985724B8, SHA256: 93F65D110864961A92DFFFB68D769802DC46BE0B2A648229EC32281A0FE22AC4, ED2K: BCD6FB4C1AF1D158555AEE52396A9DD4
Screenshots
screenshotscreenshotscreenshotscreenshotscreenshot
Additional Info
General
Complete name                            : 04.mp4
Format                                   : MPEG-4
Format profile                           : Base Media / Version 2
Codec ID                                 : mp42 (isom/iso2/mp41)
File size                                : 268 MiB
Duration                                 : 23 min 40 s
Overall bit rate                         : 1 585 kb/s
Encoded date                             : UTC 2020-08-13 19:32:57
Tagged date                              : UTC 2020-08-13 19:32:57
Writing application                      : HandBrake 20200804121537-7388225bc-master 2020080401

Video
ID                                       : 1
Format                                   : HEVC
Format/Info                              : High Efficiency Video Coding
Format profile                           : Main@L6.2@Main
Codec ID                                 : hvc1
Codec ID/Info                            : High Efficiency Video Coding
Duration                                 : 23 min 40 s
Bit rate                                 : 1 240 kb/s
Width                                    : 1 920 pixels
Height                                   : 1 080 pixels
Display aspect ratio                     : 16:9
Frame rate mode                          : Variable
Frame rate                               : 23.976 (24000/1001) FPS
Minimum frame rate                       : 23.974 FPS
Maximum frame rate                       : 23.981 FPS
Standard                                 : Component
Color space                              : YUV
Chroma subsampling                       : 4:2:0
Bit depth                                : 8 bits
Bits/(Pixel*Frame)                       : 0.025
Stream size                              : 210 MiB (78%)
Encoded date                             : UTC 2020-08-13 19:32:57
Tagged date                              : UTC 2020-08-13 19:32:57
Color range                              : Limited
Codec configuration box                  : hvcC

Audio
ID                                       : 2
Format                                   : AAC LC
Format/Info                              : Advanced Audio Codec Low Complexity
Codec ID                                 : mp4a-40-2
Duration                                 : 23 min 40 s
Bit rate mode                            : Constant
Bit rate                                 : 340 kb/s
Channel(s)                               : 2 channels
Channel layout                           : L R
Sampling rate                            : 44.1 kHz
Frame rate                               : 43.066 FPS (1024 SPF)
Compression mode                         : Lossy
Stream size                              : 57.5 MiB (21%)
Title                                    : Stereo
Language                                 : Japanese
Default                                  : Yes
Alternate group                          : 1
Encoded date                             : UTC 2020-08-13 19:32:57
Tagged date                              : UTC 2020-08-13 19:32:57

Other Files in this Torrent
04.mp4
beta
Anime DDL+NZB mirror
Current Time: 16/01/2021 12:30



About/FAQs