File Size219.1 MB (229,697,677 bytes)
DownloadAnonFiles | ClickNUpload | DropAPK | Free | MultiUp
  • BdUpload
  • DownAce
  • Fichier
  • FileCloud
  • Filerio
  • FilesCdn
  • IndiShare
  • Kbagi
  • Turbobit
  • UpToBox
  • Uppit
| Sendspace | SolidFiles | ZippyShare
HashesCRC32: 1F8E8F4B, MD5: E3624295201999031C64AF13ACDBBDAE, SHA1: 9ED8171770B61788753FB9AB9B18E65F4FB347B0, SHA256: 79E32FE405DF558950A242D63498E6FB005252DF25AA44209B2290FCA6E67299, ED2K: EFF97592380F7AFBC63CA56B2E4AA2F9
Screenshots
screenshotscreenshotscreenshotscreenshotscreenshot
Additional Info
General
Complete name                            : 01.mp4
Format                                   : MPEG-4
Format profile                           : Base Media / Version 2
Codec ID                                 : mp42 (isom/iso2/mp41)
File size                                : 219 MiB
Duration                                 : 23 min 40 s
Overall bit rate                         : 1 294 kb/s
Encoded date                             : UTC 2020-08-13 19:18:27
Tagged date                              : UTC 2020-08-13 19:18:27
Writing application                      : HandBrake 20200804121537-7388225bc-master 2020080401

Video
ID                                       : 1
Format                                   : HEVC
Format/Info                              : High Efficiency Video Coding
Format profile                           : Main@L6.2@Main
Codec ID                                 : hvc1
Codec ID/Info                            : High Efficiency Video Coding
Duration                                 : 23 min 40 s
Bit rate                                 : 964 kb/s
Width                                    : 1 920 pixels
Height                                   : 1 080 pixels
Display aspect ratio                     : 16:9
Frame rate mode                          : Variable
Frame rate                               : 23.976 (24000/1001) FPS
Minimum frame rate                       : 23.974 FPS
Maximum frame rate                       : 23.981 FPS
Standard                                 : Component
Color space                              : YUV
Chroma subsampling                       : 4:2:0
Bit depth                                : 8 bits
Bits/(Pixel*Frame)                       : 0.019
Stream size                              : 163 MiB (74%)
Encoded date                             : UTC 2020-08-13 19:18:27
Tagged date                              : UTC 2020-08-13 19:18:27
Color range                              : Limited
Codec configuration box                  : hvcC

Audio
ID                                       : 2
Format                                   : AAC LC
Format/Info                              : Advanced Audio Codec Low Complexity
Codec ID                                 : mp4a-40-2
Duration                                 : 23 min 40 s
Bit rate mode                            : Constant
Bit rate                                 : 325 kb/s
Channel(s)                               : 2 channels
Channel layout                           : L R
Sampling rate                            : 44.1 kHz
Frame rate                               : 43.066 FPS (1024 SPF)
Compression mode                         : Lossy
Stream size                              : 55.0 MiB (25%)
Title                                    : Stereo
Language                                 : Japanese
Default                                  : Yes
Alternate group                          : 1
Encoded date                             : UTC 2020-08-13 19:18:27
Tagged date                              : UTC 2020-08-13 19:18:27

Other Files in this Torrent
01.mp4
beta
Anime DDL+NZB mirror
Current Time: 16/01/2021 13:08



About/FAQs