File Size235.3 MB (246,769,721 bytes)
DownloadAnonFiles | ClickNUpload | DropAPK | Free | MultiUp
  • BdUpload
  • DownAce
  • Fichier
  • FileCloud
  • Filerio
  • FilesCdn
  • IndiShare
  • Kbagi
  • Turbobit
  • UpToBox
  • Uppit
| Sendspace | SolidFiles | ZippyShare
HashesCRC32: 64B967BF, MD5: 5DF04CC9C55D0E1A7CDA83A1596B9CBD, SHA1: EB666CDC9D1B597A5BEDAD89DFA333A034CD89D9, SHA256: 5E67A4F471D120AFDCBC8AE3AC3E8A37D0E9110517C58F62A88C51646FEE36A6, ED2K: 4EB63B559F79B0F3549B84F9CB0873CF
Screenshots
screenshotscreenshotscreenshotscreenshotscreenshot
Additional Info
General
Complete name                            : 02.mp4
Format                                   : MPEG-4
Format profile                           : Base Media / Version 2
Codec ID                                 : mp42 (isom/iso2/mp41)
File size                                : 235 MiB
Duration                                 : 23 min 40 s
Overall bit rate                         : 1 390 kb/s
Encoded date                             : UTC 2020-08-13 19:23:12
Tagged date                              : UTC 2020-08-13 19:23:12
Writing application                      : HandBrake 20200804121537-7388225bc-master 2020080401

Video
ID                                       : 1
Format                                   : HEVC
Format/Info                              : High Efficiency Video Coding
Format profile                           : Main@L6.2@Main
Codec ID                                 : hvc1
Codec ID/Info                            : High Efficiency Video Coding
Duration                                 : 23 min 40 s
Bit rate                                 : 1 046 kb/s
Width                                    : 1 920 pixels
Height                                   : 1 080 pixels
Display aspect ratio                     : 16:9
Frame rate mode                          : Variable
Frame rate                               : 23.976 (24000/1001) FPS
Minimum frame rate                       : 23.974 FPS
Maximum frame rate                       : 23.981 FPS
Standard                                 : Component
Color space                              : YUV
Chroma subsampling                       : 4:2:0
Bit depth                                : 8 bits
Bits/(Pixel*Frame)                       : 0.021
Stream size                              : 177 MiB (75%)
Encoded date                             : UTC 2020-08-13 19:23:12
Tagged date                              : UTC 2020-08-13 19:23:12
Color range                              : Limited
Codec configuration box                  : hvcC

Audio
ID                                       : 2
Format                                   : AAC LC
Format/Info                              : Advanced Audio Codec Low Complexity
Codec ID                                 : mp4a-40-2
Duration                                 : 23 min 40 s
Bit rate mode                            : Constant
Bit rate                                 : 339 kb/s
Channel(s)                               : 2 channels
Channel layout                           : L R
Sampling rate                            : 44.1 kHz
Frame rate                               : 43.066 FPS (1024 SPF)
Compression mode                         : Lossy
Stream size                              : 57.4 MiB (24%)
Title                                    : Stereo
Language                                 : Japanese
Default                                  : Yes
Alternate group                          : 1
Encoded date                             : UTC 2020-08-13 19:23:12
Tagged date                              : UTC 2020-08-13 19:23:12

Other Files in this Torrent
02.mp4
beta
Anime DDL+NZB mirror
Current Time: 16/01/2021 11:47



About/FAQs