File Size236.6 MB (248,073,794 bytes)
DownloadAnonFiles | ClickNUpload | DropAPK | Free | MultiUp
  • BdUpload
  • DownAce
  • Fichier
  • FileCloud
  • Filerio
  • FilesCdn
  • IndiShare
  • Kbagi
  • Turbobit
  • UpToBox
  • Uppit
| Sendspace | SolidFiles | ZippyShare
HashesCRC32: 79035062, MD5: CA571B503B538B33FB73548A80CAE4BD, SHA1: FCF78B0072A416A3CAD355E9DA578F97073684D5, SHA256: 5FFB833DA0146D29253581AB38E4D8075FB874265CCE72551856C37A77358314, ED2K: 6FBFF1D4AEB4C1FA9285FAB25B477883
Screenshots
screenshotscreenshotscreenshotscreenshotscreenshot
Additional Info
General
Complete name                            : 00.mp4
Format                                   : MPEG-4
Format profile                           : Base Media / Version 2
Codec ID                                 : mp42 (isom/iso2/mp41)
File size                                : 237 MiB
Duration                                 : 23 min 40 s
Overall bit rate                         : 1 397 kb/s
Encoded date                             : UTC 2020-08-13 19:13:40
Tagged date                              : UTC 2020-08-13 19:13:40
Writing application                      : HandBrake 20200804121537-7388225bc-master 2020080401

Video
ID                                       : 1
Format                                   : HEVC
Format/Info                              : High Efficiency Video Coding
Format profile                           : Main@L6.2@Main
Codec ID                                 : hvc1
Codec ID/Info                            : High Efficiency Video Coding
Duration                                 : 23 min 40 s
Bit rate                                 : 1 072 kb/s
Width                                    : 1 920 pixels
Height                                   : 1 080 pixels
Display aspect ratio                     : 16:9
Frame rate mode                          : Variable
Frame rate                               : 23.976 (24000/1001) FPS
Minimum frame rate                       : 23.974 FPS
Maximum frame rate                       : 23.981 FPS
Standard                                 : Component
Color space                              : YUV
Chroma subsampling                       : 4:2:0
Bit depth                                : 8 bits
Bits/(Pixel*Frame)                       : 0.022
Stream size                              : 181 MiB (77%)
Encoded date                             : UTC 2020-08-13 19:13:40
Tagged date                              : UTC 2020-08-13 19:13:40
Color range                              : Limited
Codec configuration box                  : hvcC

Audio
ID                                       : 2
Format                                   : AAC LC
Format/Info                              : Advanced Audio Codec Low Complexity
Codec ID                                 : mp4a-40-2
Duration                                 : 23 min 40 s
Bit rate mode                            : Constant
Bit rate                                 : 321 kb/s
Channel(s)                               : 2 channels
Channel layout                           : L R
Sampling rate                            : 44.1 kHz
Frame rate                               : 43.066 FPS (1024 SPF)
Compression mode                         : Lossy
Stream size                              : 54.3 MiB (23%)
Title                                    : Stereo
Language                                 : Japanese
Default                                  : Yes
Alternate group                          : 1
Encoded date                             : UTC 2020-08-13 19:13:40
Tagged date                              : UTC 2020-08-13 19:13:40

Other Files in this Torrent
00.mp4
beta
Anime DDL+NZB mirror
Current Time: 16/01/2021 12:36



About/FAQs