File Size176.7 MB (185,268,448 bytes)
DownloadAnonFiles | ClickNUpload | DownloadGG | KrakenFiles | MultiUp
  • BdUpload
  • DownAce
  • Fichier
  • FileCloud
  • Filerio
  • FilesCdn
  • IndiShare
  • Kbagi
  • Turbobit
  • UpToBox
  • Uppit
| ZippyShare
HashesCRC32: 33C2DAB7, MD5: 2FBDB0517D49854142584ECF64D5D01F, SHA1: F6CA060D9EC5571622CF313870AFDB3ACB45E23E, SHA256: CECA0B40EA7DB4EEAC0F3E4C03AEFD34F4718F77E48AAF613FE37FAFED131252, ED2K: 169FC479A05ED97194D7CD5F704F707A
Screenshots
screenshotscreenshotscreenshotscreenshotscreenshot
SubtitlesAll Attachments | SDH [eng, ASS]
Additional Info
General
Unique ID                                : 310309556601831079511766290228022572916 (0xE973725B83B10B95711E39211F1F7774)
Complete name                            : Yu-Gi-Oh! SEVENS_E62_The Lukeman.mkv
Format                                   : Matroska
Format version                           : Version 4
File size                                : 177 MiB
Duration                                 : 22 min 18 s
Overall bit rate mode                    : Variable
Overall bit rate                         : 1 107 kb/s
Writing application                      : Lavf59.9.101
Writing library                          : Lavf59.9.101
ErrorDetectionType                       : Per level 1

Video
ID                                       : 1
Format                                   : AVC
Format/Info                              : Advanced Video Codec
Format profile                           : High@L3.1
Format settings                          : CABAC / 4 Ref Frames
Format settings, CABAC                   : Yes
Format settings, Reference frames        : 4 frames
Codec ID                                 : V_MPEG4/ISO/AVC
Duration                                 : 22 min 18 s
Bit rate                                 : 4 453 kb/s
Width                                    : 1 280 pixels
Height                                   : 720 pixels
Display aspect ratio                     : 16:9
Frame rate mode                          : Constant
Frame rate                               : 23.976 (24000/1001) FPS
Color space                              : YUV
Chroma subsampling                       : 4:2:0
Bit depth                                : 8 bits
Scan type                                : Progressive
Bits/(Pixel*Frame)                       : 0.202
Stream size                              : 711 MiB
Writing library                          : x264 core 164 r3075 66a5bc1
Encoding settings                        : cabac=1 / ref=3 / deblock=1:0:0 / analyse=0x3:0x113 / me=hex / subme=7 / psy=1 / psy_rd=1.00:0.00 / mixed_ref=1 / me_range=16 / chroma_me=1 / trellis=1 / 8x8dct=1 / cqm=0 / deadzone=21,11 / fast_pskip=1 / chroma_qp_offset=-2 / threads=12 / lookahead_threads=2 / sliced_threads=0 / nr=0 / decimate=1 / interlaced=0 / bluray_compat=0 / constrained_intra=0 / bframes=3 / b_pyramid=2 / b_adapt=1 / b_bias=0 / direct=1 / weightb=1 / open_gop=0 / weightp=2 / keyint=250 / keyint_min=23 / scenecut=40 / intra_refresh=0 / rc_lookahead=40 / rc=crf / mbtree=1 / crf=28.0 / qcomp=0.60 / qpmin=0 / qpmax=69 / qpstep=4 / ip_ratio=1.40 / aq=1:1.00
Default                                  : Yes
Forced                                   : No
Color range                              : Limited

Audio
ID                                       : 2
Format                                   : Vorbis
Format settings, Floor                   : 1 / 16898
Codec ID                                 : A_VORBIS
Duration                                 : 22 min 18 s
Bit rate mode                            : Variable
Bit rate                                 : 276 kb/s
Channel(s)                               : 6 channels
Sampling rate                            : 48.0 kHz
Frame rate                               : 31.250 FPS (1536 SPF)
Compression mode                         : Lossy
Stream size                              : 40.9 MiB (23%)
Writing application                      : Lavc59.13.100
Writing library                          : libVorbis (Reducing Environment) (20200704 (Reducing Environment))
Language                                 : English
Default                                  : Yes
Forced                                   : No

Text
ID                                       : 3
Format                                   : ASS
Codec ID                                 : S_TEXT/ASS
Codec ID/Info                            : Advanced Sub Station Alpha
Duration                                 : 21 min 52 s
Bit rate                                 : 86 b/s
Count of elements                        : 456
Compression mode                         : Lossless
Stream size                              : 13.8 KiB (0%)
Title                                    : SDH
Writing library                          : Lavc59.13.100 ssa
Language                                 : English
Default                                  : No
Forced                                   : No

Menu
00:01:25.583                             : :Part 01
00:11:17.875                             : :Part 02
00:18:37.166                             : :Part 03
00:21:56.875                             : :Credits

Other Files in this Torrent
Yu-Gi-Oh! SEVENS_E62_The Lukeman.mkv
beta
Anime DDL+NZB mirror
Current Time: 23/04/2024 07:26



About/FAQs

Discord