File Size139.5 MB (146,305,422 bytes)
DownloadAnonFiles | ClickNUpload | DownloadGG | KrakenFiles | MultiUp
  • BdUpload
  • DownAce
  • Fichier
  • FileCloud
  • Filerio
  • FilesCdn
  • IndiShare
  • Kbagi
  • Turbobit
  • UpToBox
  • Uppit
| ZippyShare
HashesCRC32: A0CBDBAF, MD5: B64936FDDB5B59F6F0A98FC91590AF3D, SHA1: F885A4B65031FFF0AF5C8FE354B64A90284159C4, SHA256: 51DF2A3E5BD2FF8490ED25C6EC2AA1891C55799BB712A15466878F3E1C7B3187, ED2K: 01BD3CBB78E460E1FF8C8B5AD5F18217
Screenshots
screenshotscreenshotscreenshotscreenshotscreenshot
SubtitlesAll Attachments | SDH [eng, ASS]
Additional Info
General
Unique ID                                : 155449097103068650865587935820004012912 (0x74F268374DE3680BFA8F7A8F9D353370)
Complete name                            : Yu-Gi-Oh! SEVENS_E53_Give it a Swirl.mkv
Format                                   : Matroska
Format version                           : Version 4
File size                                : 140 MiB
Duration                                 : 22 min 1 s
Overall bit rate mode                    : Variable
Overall bit rate                         : 886 kb/s
Writing application                      : Lavf59.9.101
Writing library                          : Lavf59.9.101
ErrorDetectionType                       : Per level 1

Video
ID                                       : 1
Format                                   : AVC
Format/Info                              : Advanced Video Codec
Format profile                           : High@L3.1
Format settings                          : CABAC / 4 Ref Frames
Format settings, CABAC                   : Yes
Format settings, Reference frames        : 4 frames
Codec ID                                 : V_MPEG4/ISO/AVC
Duration                                 : 22 min 1 s
Bit rate                                 : 3 363 kb/s
Width                                    : 1 280 pixels
Height                                   : 720 pixels
Display aspect ratio                     : 16:9
Frame rate mode                          : Constant
Frame rate                               : 23.976 (24000/1001) FPS
Color space                              : YUV
Chroma subsampling                       : 4:2:0
Bit depth                                : 8 bits
Scan type                                : Progressive
Bits/(Pixel*Frame)                       : 0.152
Stream size                              : 530 MiB
Writing library                          : x264 core 164 r3075 66a5bc1
Encoding settings                        : cabac=1 / ref=3 / deblock=1:0:0 / analyse=0x3:0x113 / me=hex / subme=7 / psy=1 / psy_rd=1.00:0.00 / mixed_ref=1 / me_range=16 / chroma_me=1 / trellis=1 / 8x8dct=1 / cqm=0 / deadzone=21,11 / fast_pskip=1 / chroma_qp_offset=-2 / threads=12 / lookahead_threads=2 / sliced_threads=0 / nr=0 / decimate=1 / interlaced=0 / bluray_compat=0 / constrained_intra=0 / bframes=3 / b_pyramid=2 / b_adapt=1 / b_bias=0 / direct=1 / weightb=1 / open_gop=0 / weightp=2 / keyint=250 / keyint_min=23 / scenecut=40 / intra_refresh=0 / rc_lookahead=40 / rc=crf / mbtree=1 / crf=28.0 / qcomp=0.60 / qpmin=0 / qpmax=69 / qpstep=4 / ip_ratio=1.40 / aq=1:1.00
Default                                  : Yes
Forced                                   : No
Color range                              : Limited

Audio
ID                                       : 2
Format                                   : Vorbis
Format settings, Floor                   : 1 / 16898
Codec ID                                 : A_VORBIS
Duration                                 : 22 min 1 s
Bit rate mode                            : Variable
Bit rate                                 : 276 kb/s
Channel(s)                               : 6 channels
Sampling rate                            : 48.0 kHz
Frame rate                               : 31.250 FPS (1536 SPF)
Compression mode                         : Lossy
Stream size                              : 40.3 MiB (29%)
Writing application                      : Lavc59.13.100
Writing library                          : libVorbis (Reducing Environment) (20200704 (Reducing Environment))
Language                                 : English
Default                                  : Yes
Forced                                   : No

Text
ID                                       : 3
Format                                   : ASS
Codec ID                                 : S_TEXT/ASS
Codec ID/Info                            : Advanced Sub Station Alpha
Duration                                 : 21 min 34 s
Bit rate                                 : 79 b/s
Count of elements                        : 441
Compression mode                         : Lossless
Stream size                              : 12.5 KiB (0%)
Title                                    : SDH
Writing library                          : Lavc59.13.100 ssa
Language                                 : English
Default                                  : No
Forced                                   : No

Menu
00:03:06.083                             : :Part 01
00:09:28.958                             : :Part 02
00:19:04.250                             : :Part 03
00:21:40.541                             : :Credits

Other Files in this Torrent
Yu-Gi-Oh! SEVENS_E53_Give it a Swirl.mkv
beta
Anime DDL+NZB mirror
Current Time: 25/07/2024 15:45



About/FAQs

Discord