File Size271.1 MB (284,307,393 bytes)
DownloadAnonFiles | ClickNUpload | DownloadGG | KrakenFiles | MultiUp
  • BdUpload
  • DownAce
  • Fichier
  • FileCloud
  • Filerio
  • FilesCdn
  • IndiShare
  • Kbagi
  • Turbobit
  • UpToBox
  • Uppit
| ZippyShare
HashesCRC32: 889E51B4, MD5: 774F325129E32F77D3D9EA4EE4FE59FD, SHA1: EDD63F2662B4AB764966E6ED37BB65003E2AB2F0, SHA256: 0583861FEB425AE05CC63669F7BAA221E3C66FD4A8BD636B08738251F4A806F2, ED2K: CB3A8D23A8323E02ECE2E66F3228E152
Screenshots
screenshotscreenshotscreenshotscreenshotscreenshot
SubtitlesAll Attachments | English [eng, SRT]
Additional Info
General
Unique ID                                : 91619453324739159123596619419867712970 (0x44ED43CE2B73440049AFDED8E0BC8DCA)
Complete name                            : Yu-Gi-Oh! SEVENS_E47_Bad Business.mkv
Format                                   : Matroska
Format version                           : Version 4
File size                                : 271 MiB
Duration                                 : 22 min 10 s
Overall bit rate                         : 1 709 kb/s
Movie name                               : Bad Business
Description                              : Luke is challenged by a sinister CEO!
Writing application                      : Lavf58.76.100
Writing library                          : Lavf58.76.100
ErrorDetectionType                       : Per level 1
ARTIST                                   : Bryson Baugus, Abby Espiritu, Jake Paque
DATE                                     : 2023
EPISODE_ID                               : 4
SEASON_NUMBER                            : 2
SHOW                                     : Yu-Gi-Oh! SEVENS

Video
ID                                       : 1
Format                                   : AVC
Format/Info                              : Advanced Video Codec
Format profile                           : High@L3.1
Format settings                          : CABAC / 2 Ref Frames
Format settings, CABAC                   : Yes
Format settings, Reference frames        : 2 frames
Format settings, GOP                     : M=1, N=24
Codec ID                                 : V_MPEG4/ISO/AVC
Duration                                 : 22 min 10 s
Bit rate mode                            : Constant
Bit rate                                 : 1 450 kb/s
Width                                    : 1 280 pixels
Height                                   : 720 pixels
Display aspect ratio                     : 16:9
Frame rate mode                          : Constant
Frame rate                               : 23.976 (24000/1001) FPS
Color space                              : YUV
Chroma subsampling                       : 4:2:0
Bit depth                                : 8 bits
Scan type                                : Progressive
Bits/(Pixel*Frame)                       : 0.066
Stream size                              : 225 MiB (83%)
Default                                  : Yes
Forced                                   : No
Color range                              : Limited
Color primaries                          : BT.709
Transfer characteristics                 : BT.709
Matrix coefficients                      : BT.709
VENDOR_ID                                : [0][0][0][0]

Audio
ID                                       : 2
Format                                   : E-AC-3
Format/Info                              : Enhanced AC-3
Commercial name                          : Dolby Digital Plus
Codec ID                                 : A_EAC3
Duration                                 : 22 min 10 s
Bit rate mode                            : Constant
Bit rate                                 : 256 kb/s
Channel(s)                               : 6 channels
Channel layout                           : L R C LFE Ls Rs
Sampling rate                            : 48.0 kHz
Frame rate                               : 31.250 FPS (1536 SPF)
Bit depth                                : 32 bits
Compression mode                         : Lossy
Stream size                              : 40.6 MiB (15%)
Title                                    : English
Language                                 : English
Service kind                             : Complete Main
Default                                  : Yes
Forced                                   : No
VENDOR_ID                                : [0][0][0][0]

Text
ID                                       : 3
Format                                   : UTF-8
Codec ID                                 : S_TEXT/UTF8
Codec ID/Info                            : UTF-8 Plain Text
Duration                                 : 21 min 42 s
Title                                    : English
Writing library                          : Lavc58.134.100 srt
Language                                 : English
Default                                  : Yes
Forced                                   : No

Other Files in this Torrent
Yu-Gi-Oh! SEVENS_E47_Bad Business.mkv
beta
Anime DDL+NZB mirror
Current Time: 22/04/2024 06:03



About/FAQs

Discord