File Size261.8 MB (274,489,159 bytes)
DownloadAnonFiles | ClickNUpload | DownloadGG | KrakenFiles | MultiUp
  • BdUpload
  • DownAce
  • Fichier
  • FileCloud
  • Filerio
  • FilesCdn
  • IndiShare
  • Kbagi
  • Turbobit
  • UpToBox
  • Uppit
| ZippyShare
HashesCRC32: 79F39D8D, MD5: F34E7737F4699095AB9BA6E5DBFA38B4, SHA1: 085636B707D2A23943FF3DE6BE8448D434FCF5DF, SHA256: C6C38B86E36E469ACBB666494A922E199A9C40830152A4277548E50B0B61DDC0, ED2K: CB9A24976F2FEBD12B86390D021EADFB
Screenshots
screenshotscreenshotscreenshotscreenshotscreenshot
SubtitlesAll Attachments | English [eng, SRT]
Additional Info
General
Unique ID                                : 79202729731267414845845817574169359931 (0x3B95E4112605AD5DEF8E5D3D63F9B63B)
Complete name                            : Yu-Gi-Oh! SEVENS_E56_Play Ball!.mkv
Format                                   : Matroska
Format version                           : Version 4
File size                                : 262 MiB
Duration                                 : 22 min 21 s
Overall bit rate                         : 1 637 kb/s
Movie name                               : Play Ball!
Description                              : Romin takes the mound against a baseball duelist!
Writing application                      : Lavf58.76.100
Writing library                          : Lavf58.76.100
ErrorDetectionType                       : Per level 1
ARTIST                                   : Bryson Baugus, Abby Espiritu, Jake Paque
DATE                                     : 2023
EPISODE_ID                               : 13
SEASON_NUMBER                            : 2
SHOW                                     : Yu-Gi-Oh! SEVENS

Video
ID                                       : 1
Format                                   : AVC
Format/Info                              : Advanced Video Codec
Format profile                           : High@L3.1
Format settings                          : CABAC / 2 Ref Frames
Format settings, CABAC                   : Yes
Format settings, Reference frames        : 2 frames
Format settings, GOP                     : M=1, N=24
Codec ID                                 : V_MPEG4/ISO/AVC
Duration                                 : 22 min 21 s
Bit rate mode                            : Constant
Bit rate                                 : 1 377 kb/s
Width                                    : 1 280 pixels
Height                                   : 720 pixels
Display aspect ratio                     : 16:9
Frame rate mode                          : Constant
Frame rate                               : 23.976 (24000/1001) FPS
Color space                              : YUV
Chroma subsampling                       : 4:2:0
Bit depth                                : 8 bits
Scan type                                : Progressive
Bits/(Pixel*Frame)                       : 0.062
Stream size                              : 216 MiB (82%)
Default                                  : Yes
Forced                                   : No
Color range                              : Limited
Color primaries                          : BT.709
Transfer characteristics                 : BT.709
Matrix coefficients                      : BT.709
VENDOR_ID                                : [0][0][0][0]

Audio
ID                                       : 2
Format                                   : E-AC-3
Format/Info                              : Enhanced AC-3
Commercial name                          : Dolby Digital Plus
Codec ID                                 : A_EAC3
Duration                                 : 22 min 21 s
Bit rate mode                            : Constant
Bit rate                                 : 256 kb/s
Channel(s)                               : 6 channels
Channel layout                           : L R C LFE Ls Rs
Sampling rate                            : 48.0 kHz
Frame rate                               : 31.250 FPS (1536 SPF)
Bit depth                                : 32 bits
Compression mode                         : Lossy
Stream size                              : 40.9 MiB (16%)
Title                                    : English
Language                                 : English
Service kind                             : Complete Main
Default                                  : Yes
Forced                                   : No
VENDOR_ID                                : [0][0][0][0]

Text
ID                                       : 3
Format                                   : UTF-8
Codec ID                                 : S_TEXT/UTF8
Codec ID/Info                            : UTF-8 Plain Text
Duration                                 : 21 min 55 s
Title                                    : English
Writing library                          : Lavc58.134.100 srt
Language                                 : English
Default                                  : Yes
Forced                                   : No

Other Files in this Torrent
Yu-Gi-Oh! SEVENS_E56_Play Ball!.mkv
beta
Anime DDL+NZB mirror
Current Time: 17/07/2024 19:10



About/FAQs

Discord