Yu-Gi-Oh! SEVENS_E60_Legend of The Sevens.mkv


File Size235.9 MB (247,396,434 bytes)
DownloadAnonFiles | ClickNUpload | DownloadGG | KrakenFiles | MultiUp
  • BdUpload
  • DownAce
  • Fichier
  • FileCloud
  • Filerio
  • FilesCdn
  • IndiShare
  • Kbagi
  • Turbobit
  • UpToBox
  • Uppit
| ZippyShare
HashesCRC32: CF277C65, MD5: 88F39E7E034D1937CBE1E054ADA9F0AE, SHA1: 7910A5EFCE32019E0BE26FE491CD3B04A521F333, SHA256: EB4E2A43234C76B6AD2B0E2DEFA1AB254EAF70EFCAA77827974FD501198DEE63, ED2K: A29F201C7A178C10EF5F6C2CC41310EC
Screenshots
screenshotscreenshotscreenshotscreenshotscreenshot
SubtitlesAll Attachments | English [eng, SRT]
Additional Info
General
Unique ID                                : 46124117060206715404655917321535947157 (0x22B32E8BC941584BE7F953C248DD0195)
Complete name                            : Yu-Gi-Oh! SEVENS_E60_Legend of The Sevens.mkv
Format                                   : Matroska
Format version                           : Version 4
File size                                : 236 MiB
Duration                                 : 22 min 14 s
Overall bit rate                         : 1 483 kb/s
Movie name                               : Legend of The Sevens
Description                              : Swirls hits the library to do some digging on Fusion.
Writing application                      : Lavf58.76.100
Writing library                          : Lavf58.76.100
ErrorDetectionType                       : Per level 1
ARTIST                                   : Bryson Baugus, Abby Espiritu, Jake Paque
DATE                                     : 2023
EPISODE_ID                               : 16
SEASON_NUMBER                            : 2
SHOW                                     : Yu-Gi-Oh! SEVENS

Video
ID                                       : 1
Format                                   : AVC
Format/Info                              : Advanced Video Codec
Format profile                           : High@L3.1
Format settings                          : CABAC / 2 Ref Frames
Format settings, CABAC                   : Yes
Format settings, Reference frames        : 2 frames
Format settings, GOP                     : M=1, N=24
Codec ID                                 : V_MPEG4/ISO/AVC
Duration                                 : 22 min 14 s
Bit rate mode                            : Constant
Bit rate                                 : 1 224 kb/s
Width                                    : 1 280 pixels
Height                                   : 720 pixels
Display aspect ratio                     : 16:9
Frame rate mode                          : Constant
Frame rate                               : 23.976 (24000/1001) FPS
Color space                              : YUV
Chroma subsampling                       : 4:2:0
Bit depth                                : 8 bits
Scan type                                : Progressive
Bits/(Pixel*Frame)                       : 0.055
Stream size                              : 191 MiB (81%)
Default                                  : Yes
Forced                                   : No
Color range                              : Limited
Color primaries                          : BT.709
Transfer characteristics                 : BT.709
Matrix coefficients                      : BT.709
VENDOR_ID                                : [0][0][0][0]

Audio
ID                                       : 2
Format                                   : E-AC-3
Format/Info                              : Enhanced AC-3
Commercial name                          : Dolby Digital Plus
Codec ID                                 : A_EAC3
Duration                                 : 22 min 14 s
Bit rate mode                            : Constant
Bit rate                                 : 256 kb/s
Channel(s)                               : 6 channels
Channel layout                           : L R C LFE Ls Rs
Sampling rate                            : 48.0 kHz
Frame rate                               : 31.250 FPS (1536 SPF)
Bit depth                                : 32 bits
Compression mode                         : Lossy
Stream size                              : 40.7 MiB (17%)
Title                                    : English
Language                                 : English
Service kind                             : Complete Main
Default                                  : Yes
Forced                                   : No
VENDOR_ID                                : [0][0][0][0]

Text
ID                                       : 3
Format                                   : UTF-8
Codec ID                                 : S_TEXT/UTF8
Codec ID/Info                            : UTF-8 Plain Text
Duration                                 : 21 min 46 s
Title                                    : English
Writing library                          : Lavc58.134.100 srt
Language                                 : English
Default                                  : Yes
Forced                                   : No

Other Files in this Torrent
Yu-Gi-Oh! SEVENS_E60_Legend of The Sevens.mkv
beta
Anime DDL+NZB mirror
Current Time: 25/07/2024 15:41



About/FAQs

Discord