File Size235.4 MB (246,800,843 bytes)
DownloadAnonFiles | ClickNUpload | DownloadGG | KrakenFiles | MultiUp
  • BdUpload
  • DownAce
  • Fichier
  • FileCloud
  • Filerio
  • FilesCdn
  • IndiShare
  • Kbagi
  • Turbobit
  • UpToBox
  • Uppit
| ZippyShare
HashesCRC32: 2AAE6966, MD5: B605CA0084057EA3ECDE14AE831C0761, SHA1: 0005F6971C7BDB2C38B623FB685C4D0FBE1C64B9, SHA256: 5756D9973D05DA7C48E14E947A26BACABD33A5D0C8E020C844EBBF48D576C183, ED2K: A45D79AA58835A4BE80CFE1187C45FA7
Screenshots
screenshotscreenshotscreenshotscreenshotscreenshot
SubtitlesAll Attachments | English [eng, SRT]
Additional Info
General
Unique ID                                : 53266615666655007554725799581849818564 (0x2812C6EA721A63C6CFE5B6F7621115C4)
Complete name                            : Yu-Gi-Oh! SEVENS_E57_Kendo Conflict!.mkv
Format                                   : Matroska
Format version                           : Version 4
File size                                : 235 MiB
Duration                                 : 21 min 58 s
Overall bit rate                         : 1 497 kb/s
Movie name                               : Kendo Conflict!
Description                              : Gavin aims to KO the competition in a Kendo Rush Duel!
Writing application                      : Lavf58.76.100
Writing library                          : Lavf58.76.100
ErrorDetectionType                       : Per level 1
ARTIST                                   : Bryson Baugus, Abby Espiritu, Jake Paque
DATE                                     : 2023
EPISODE_ID                               : 14
SEASON_NUMBER                            : 2
SHOW                                     : Yu-Gi-Oh! SEVENS

Video
ID                                       : 1
Format                                   : AVC
Format/Info                              : Advanced Video Codec
Format profile                           : High@L3.1
Format settings                          : CABAC / 2 Ref Frames
Format settings, CABAC                   : Yes
Format settings, Reference frames        : 2 frames
Format settings, GOP                     : M=1, N=24
Codec ID                                 : V_MPEG4/ISO/AVC
Duration                                 : 21 min 58 s
Bit rate mode                            : Constant
Bit rate                                 : 1 237 kb/s
Width                                    : 1 280 pixels
Height                                   : 720 pixels
Display aspect ratio                     : 16:9
Frame rate mode                          : Constant
Frame rate                               : 23.976 (24000/1001) FPS
Color space                              : YUV
Chroma subsampling                       : 4:2:0
Bit depth                                : 8 bits
Scan type                                : Progressive
Bits/(Pixel*Frame)                       : 0.056
Stream size                              : 190 MiB (81%)
Default                                  : Yes
Forced                                   : No
Color range                              : Limited
Color primaries                          : BT.709
Transfer characteristics                 : BT.709
Matrix coefficients                      : BT.709
VENDOR_ID                                : [0][0][0][0]

Audio
ID                                       : 2
Format                                   : E-AC-3
Format/Info                              : Enhanced AC-3
Commercial name                          : Dolby Digital Plus
Codec ID                                 : A_EAC3
Duration                                 : 21 min 58 s
Bit rate mode                            : Constant
Bit rate                                 : 256 kb/s
Channel(s)                               : 6 channels
Channel layout                           : L R C LFE Ls Rs
Sampling rate                            : 48.0 kHz
Frame rate                               : 31.250 FPS (1536 SPF)
Bit depth                                : 32 bits
Compression mode                         : Lossy
Stream size                              : 40.2 MiB (17%)
Title                                    : English
Language                                 : English
Service kind                             : Complete Main
Default                                  : Yes
Forced                                   : No
VENDOR_ID                                : [0][0][0][0]

Text
ID                                       : 3
Format                                   : UTF-8
Codec ID                                 : S_TEXT/UTF8
Codec ID/Info                            : UTF-8 Plain Text
Duration                                 : 21 min 31 s
Title                                    : English
Writing library                          : Lavc58.134.100 srt
Language                                 : English
Default                                  : Yes
Forced                                   : No

Other Files in this Torrent
Yu-Gi-Oh! SEVENS_E57_Kendo Conflict!.mkv
beta
Anime DDL+NZB mirror
Current Time: 20/07/2024 03:06



About/FAQs

Discord