Yu-Gi-Oh! SEVENS_E52_Battle Royal Finale.mkv


File Size289.7 MB (303,821,431 bytes)
DownloadAnonFiles | ClickNUpload | DownloadGG | KrakenFiles | MultiUp
  • BdUpload
  • DownAce
  • Fichier
  • FileCloud
  • Filerio
  • FilesCdn
  • IndiShare
  • Kbagi
  • Turbobit
  • UpToBox
  • Uppit
| ZippyShare
HashesCRC32: 310F49DB, MD5: 1BAB7234C6352B43AC582794EB881C37, SHA1: CD5C21D5653E1FF9E48BD7EA1CE022C19DF8B250, SHA256: 13D4A246C93F3661CC6707B7A17C3BD679844C59A1C8FBA7D9721CD91DE96CA6, ED2K: 7DDDF3AE5FAA8B0D015310D6599CD383
Screenshots
screenshotscreenshotscreenshotscreenshotscreenshot
SubtitlesAll Attachments | English [eng, SRT]
Additional Info
General
Unique ID                                : 184604909589436299555371744838398148639 (0x8AE19CC1643635FEF08CBA42267A801F)
Complete name                            : Yu-Gi-Oh! SEVENS_E52_Battle Royal Finale.mkv
Format                                   : Matroska
Format version                           : Version 4
File size                                : 290 MiB
Duration                                 : 23 min 15 s
Overall bit rate                         : 1 742 kb/s
Movie name                               : Battle Royal Finale
Description                              : Someone is secretly trying to destroy Rush Duels!
Writing application                      : Lavf58.76.100
Writing library                          : Lavf58.76.100
ErrorDetectionType                       : Per level 1
ARTIST                                   : Bryson Baugus, Abby Espiritu, Jake Paque
DATE                                     : 2023
EPISODE_ID                               : 9
SEASON_NUMBER                            : 2
SHOW                                     : Yu-Gi-Oh! SEVENS

Video
ID                                       : 1
Format                                   : AVC
Format/Info                              : Advanced Video Codec
Format profile                           : High@L3.1
Format settings                          : CABAC / 2 Ref Frames
Format settings, CABAC                   : Yes
Format settings, Reference frames        : 2 frames
Format settings, GOP                     : M=1, N=24
Codec ID                                 : V_MPEG4/ISO/AVC
Duration                                 : 23 min 15 s
Bit rate mode                            : Constant
Bit rate                                 : 1 482 kb/s
Width                                    : 1 280 pixels
Height                                   : 720 pixels
Display aspect ratio                     : 16:9
Frame rate mode                          : Constant
Frame rate                               : 23.976 (24000/1001) FPS
Color space                              : YUV
Chroma subsampling                       : 4:2:0
Bit depth                                : 8 bits
Scan type                                : Progressive
Bits/(Pixel*Frame)                       : 0.067
Stream size                              : 241 MiB (83%)
Default                                  : Yes
Forced                                   : No
Color range                              : Limited
Color primaries                          : BT.709
Transfer characteristics                 : BT.709
Matrix coefficients                      : BT.709
VENDOR_ID                                : [0][0][0][0]

Audio
ID                                       : 2
Format                                   : E-AC-3
Format/Info                              : Enhanced AC-3
Commercial name                          : Dolby Digital Plus
Codec ID                                 : A_EAC3
Duration                                 : 23 min 15 s
Bit rate mode                            : Constant
Bit rate                                 : 256 kb/s
Channel(s)                               : 6 channels
Channel layout                           : L R C LFE Ls Rs
Sampling rate                            : 48.0 kHz
Frame rate                               : 31.250 FPS (1536 SPF)
Bit depth                                : 32 bits
Compression mode                         : Lossy
Stream size                              : 42.6 MiB (15%)
Title                                    : English
Language                                 : English
Service kind                             : Complete Main
Default                                  : Yes
Forced                                   : No
VENDOR_ID                                : [0][0][0][0]

Text
ID                                       : 3
Format                                   : UTF-8
Codec ID                                 : S_TEXT/UTF8
Codec ID/Info                            : UTF-8 Plain Text
Duration                                 : 22 min 50 s
Title                                    : English
Writing library                          : Lavc58.134.100 srt
Language                                 : English
Default                                  : Yes
Forced                                   : No

Other Files in this Torrent
Yu-Gi-Oh! SEVENS_E52_Battle Royal Finale.mkv
beta
Anime DDL+NZB mirror
Current Time: 22/04/2024 12:19



About/FAQs

Discord