Violet Evergarden - 05 1080p Bluray x265[10Bit] - DZY.mkv


File Size197.6 MB (207,228,123 bytes)
DownloadClickNUpload | DiskoKosmiko | Go4Up | Jheberg | MultiUp | OpenLoad | Sendspace | SolidFiles | ZippyShare
Encrypted DownloadDirect
Password:
HashesCRC32: 411D577E, MD5: BF70B91D4FC681A6C1D5608A5E18C6C9, SHA1: F0283B1E69FC704C6C7CB4BEB8D17E6D395ECEA7, SHA256: 0B98263A04CFA52CE4F9A48FA6EF12B88BFD7D9E6004449C31CF35F5210F1F10, ED2K: BB64D397CBD5624F1E72DE686DE29C53
Screenshots
screenshotscreenshotscreenshotscreenshotscreenshot
SubtitlesAll Attachments | eng [ASS]
Additional Info
General
Unique ID                                : 242174460234153743719898559198215385319 (0xB6311ABEBF6222BC81223F390885B0E7)
Complete name                            : Violet Evergarden - 05 1080p Bluray x265[10Bit] - DZY.mkv
Format                                   : Matroska
Format version                           : Version 4 / Version 2
File size                                : 198 MiB
Duration                                 : 25 min 7 s
Overall bit rate                         : 1 100 kb/s
Movie name                               : Violet Evergarden - 05 1080p Bluray x265[10Bit] - DZY
Encoded date                             : UTC 2018-07-09 00:14:22
Writing application                      : mkvmerge v15.0.0 ('Duel with the Devil') 64-bit
Writing library                          : libebml v1.3.5 + libmatroska v1.4.5
Attachments                              : Cabin-Bold.otf / Cabin-BoldItalic.otf / FOT-KleePro-DB-Str.otf / IwaMinPro-Md-Kami.ttf / IwaOMinPro-Bd-Fate.ttf / justs.ttf

Video
ID                                       : 1
Format                                   : HEVC
Format/Info                              : High Efficiency Video Coding
Format profile                           : Main 10@L8.5@Main
Codec ID                                 : V_MPEGH/ISO/HEVC
Duration                                 : 25 min 7 s
Bit rate                                 : 987 kb/s
Width                                    : 1 920 pixels
Height                                   : 1 080 pixels
Display aspect ratio                     : 16:9
Frame rate mode                          : Constant
Frame rate                               : 23.976 (24000/1001) FPS
Color space                              : YUV
Chroma subsampling                       : 4:2:0
Bit depth                                : 10 bits
Bits/(Pixel*Frame)                       : 0.020
Stream size                              : 177 MiB (90%)
Title                                    : Violet Evergarden - 05 1080p Bluray x265[10Bit] - DZY
Language                                 : Japanese
Default                                  : Yes
Forced                                   : No
Color range                              : Limited
Color primaries                          : BT.709
Transfer characteristics                 : BT.709
Matrix coefficients                      : BT.709

Audio
ID                                       : 2
Format                                   : AAC
Format/Info                              : Advanced Audio Codec
Format profile                           : HE-AAC / LC
Codec ID                                 : A_AAC
Duration                                 : 25 min 7 s
Bit rate                                 : 96.0 kb/s
Channel(s)                               : 6 channels
Channel positions                        : Front: L C R, Side: L R, LFE
Sampling rate                            : 48.0 kHz / 24.0 kHz
Frame rate                               : 23.438 FPS (1024 spf)
Compression mode                         : Lossy
Delay relative to video                  : 40 ms
Stream size                              : 17.2 MiB (9%)
Title                                    : Violet Evergarden - 05 1080p Bluray x265[10Bit] - DZY
Language                                 : Japanese
Default                                  : Yes
Forced                                   : No

Text
ID                                       : 3
Format                                   : ASS
Codec ID                                 : S_TEXT/ASS
Codec ID/Info                            : Advanced Sub Station Alpha
Duration                                 : 25 min 7 s
Bit rate                                 : 7 485 b/s
Count of elements                        : 1891
Compression mode                         : Lossless
Stream size                              : 1.34 MiB (1%)
Language                                 : English
Default                                  : No
Forced                                   : No

Menu
00:00:00.000                             : en:Intro
00:01:07.985                             : en:A
00:09:06.004                             : en:B
00:22:46.824                             : en:ED
00:24:16.830                             : en:Outro

Other Files in this Torrent
Violet Evergarden - 05 1080p Bluray x265[10Bit] - DZY.mkv
beta
Anime DDL+NZB mirror
Current Time: 15/12/2019 11:29



About/FAQs