Violet Evergarden - 02 1080p Bluray x265[10Bit] - DZY.mkv


File Size177.2 MB (185,810,616 bytes)
DownloadClickNUpload | DiskoKosmiko | Go4Up | Jheberg | MultiUp
  • BdUpload
  • DownAce
  • Fichier
  • FileCloud
  • Filerio
  • FilesCdn
  • IndiShare
  • Kbagi
  • Turbobit
  • UpToBox
  • Uppit
  • ZippyShare
| OpenLoad | Sendspace | SolidFiles | ZippyShare
Encrypted DownloadDirect
Password:
HashesCRC32: A531BE09, MD5: 94BD29DB3258C7FD5A89C7CC4BA920E3, SHA1: F965C4DE39F2CB00F24AA261FCCF10F73237CD68, SHA256: 5E87F1AB6A5BD0CFA9353112E7C7BEE65CB6D824185FEB7D2567D5104F34E174, ED2K: 6F585B5C7ECB0D1112640B139671E439
Screenshots
screenshotscreenshotscreenshotscreenshotscreenshot
SubtitlesAll Attachments | eng [ASS]
Additional Info
General
Unique ID                                : 174097075395054853093133368205364481262 (0x82F9E087E12C1DAFBCBC9CA46188CCEE)
Complete name                            : Violet Evergarden - 02 1080p Bluray x265[10Bit] - DZY.mkv
Format                                   : Matroska
Format version                           : Version 4 / Version 2
File size                                : 177 MiB
Duration                                 : 25 min 10 s
Overall bit rate                         : 984 kb/s
Movie name                               : Violet Evergarden - 02 1080p Bluray x265[10Bit] - DZY
Encoded date                             : UTC 2018-07-08 22:07:19
Writing application                      : mkvmerge v15.0.0 ('Duel with the Devil') 64-bit
Writing library                          : libebml v1.3.5 + libmatroska v1.4.5
Attachments                              : Cabin-Bold.otf / Cabin-BoldItalic.otf / FOT-KleePro-DB-Str.otf / IwaMinPro-Md-Kami.ttf / justs.ttf

Video
ID                                       : 1
Format                                   : HEVC
Format/Info                              : High Efficiency Video Coding
Format profile                           : Main 10@L8.5@Main
Codec ID                                 : V_MPEGH/ISO/HEVC
Duration                                 : 25 min 10 s
Bit rate                                 : 875 kb/s
Width                                    : 1 920 pixels
Height                                   : 1 080 pixels
Display aspect ratio                     : 16:9
Frame rate mode                          : Constant
Frame rate                               : 23.976 (24000/1001) FPS
Color space                              : YUV
Chroma subsampling                       : 4:2:0
Bit depth                                : 10 bits
Bits/(Pixel*Frame)                       : 0.018
Stream size                              : 158 MiB (89%)
Title                                    : Violet Evergarden - 02 1080p Bluray x265[10Bit] - DZY
Language                                 : Japanese
Default                                  : Yes
Forced                                   : No
Color range                              : Limited
Color primaries                          : BT.709
Transfer characteristics                 : BT.709
Matrix coefficients                      : BT.709

Audio
ID                                       : 2
Format                                   : AAC
Format/Info                              : Advanced Audio Codec
Format profile                           : HE-AAC / LC
Codec ID                                 : A_AAC
Duration                                 : 25 min 10 s
Bit rate                                 : 96.0 kb/s
Channel(s)                               : 6 channels
Channel positions                        : Front: L C R, Side: L R, LFE
Sampling rate                            : 48.0 kHz / 24.0 kHz
Frame rate                               : 23.438 FPS (1024 spf)
Compression mode                         : Lossy
Delay relative to video                  : 40 ms
Stream size                              : 17.3 MiB (10%)
Title                                    : Violet Evergarden - 02 1080p Bluray x265[10Bit] - DZY
Language                                 : Japanese
Default                                  : Yes
Forced                                   : No

Text
ID                                       : 3
Format                                   : ASS
Codec ID                                 : S_TEXT/ASS
Codec ID/Info                            : Advanced Sub Station Alpha
Duration                                 : 25 min 6 s
Bit rate                                 : 7 486 b/s
Count of elements                        : 1946
Compression mode                         : Lossless
Stream size                              : 1.34 MiB (1%)
Language                                 : English
Default                                  : No
Forced                                   : No

Menu
00:00:00.000                             : en:Intro
00:01:54.031                             : en:A
00:11:10.044                             : en:B
00:23:40.044                             : en:ED

Other Files in this Torrent
Violet Evergarden - 02 1080p Bluray x265[10Bit] - DZY.mkv
beta
Anime DDL+NZB mirror
Current Time: 06/12/2019 10:34



About/FAQs