Violet Evergarden - 06 1080p Bluray x265[10Bit] - DZY.mkv


File Size141.7 MB (148,603,626 bytes)
DownloadClickNUpload | DiskoKosmiko | Go4Up | Jheberg | MultiUp | OpenLoad | Sendspace | SolidFiles | ZippyShare
Encrypted DownloadDirect
Password:
HashesCRC32: 162BA10A, MD5: F625272B96B3D2C0EAAB38CD0D5264F6, SHA1: D23B000E070A8F8918CC86498BD3D8D11CCBD359, SHA256: D561EBD0C1F285FC04B73DD2AD408B99AAA03280C0FD1831C51488E45890AA4E, ED2K: A5C3C93C5FF6C1B5944AAC35FABC37C3
Screenshots
screenshotscreenshotscreenshotscreenshotscreenshot
SubtitlesAll Attachments | eng [ASS]
Additional Info
General
Unique ID                                : 176805041538947078726510206664825773561 (0x85036991DB59BF5884B6010918521DF9)
Complete name                            : Violet Evergarden - 06 1080p Bluray x265[10Bit] - DZY.mkv
Format                                   : Matroska
Format version                           : Version 4 / Version 2
File size                                : 142 MiB
Duration                                 : 23 min 40 s
Overall bit rate                         : 837 kb/s
Movie name                               : Violet Evergarden - 06 1080p Bluray x265[10Bit] - DZY
Encoded date                             : UTC 2018-07-09 00:54:12
Writing application                      : mkvmerge v15.0.0 ('Duel with the Devil') 64-bit
Writing library                          : libebml v1.3.5 + libmatroska v1.4.5
Attachments                              : Cabin-Bold.otf / Cabin-BoldItalic.otf / FOT-KleePro-DB-Str.otf / IwaMinPro-Md-Kami.ttf / IwaOMinPro-Bd-Fate.ttf / justs.ttf

Video
ID                                       : 1
Format                                   : HEVC
Format/Info                              : High Efficiency Video Coding
Format profile                           : Main 10@L8.5@Main
Codec ID                                 : V_MPEGH/ISO/HEVC
Duration                                 : 23 min 40 s
Bit rate                                 : 723 kb/s
Width                                    : 1 920 pixels
Height                                   : 1 080 pixels
Display aspect ratio                     : 16:9
Frame rate mode                          : Constant
Frame rate                               : 23.976 (24000/1001) FPS
Color space                              : YUV
Chroma subsampling                       : 4:2:0
Bit depth                                : 10 bits
Bits/(Pixel*Frame)                       : 0.015
Stream size                              : 122 MiB (86%)
Title                                    : Violet Evergarden - 06 1080p Bluray x265[10Bit] - DZY
Language                                 : Japanese
Default                                  : Yes
Forced                                   : No
Color range                              : Limited
Color primaries                          : BT.709
Transfer characteristics                 : BT.709
Matrix coefficients                      : BT.709

Audio
ID                                       : 2
Format                                   : AAC
Format/Info                              : Advanced Audio Codec
Format profile                           : HE-AAC / LC
Codec ID                                 : A_AAC
Duration                                 : 23 min 40 s
Bit rate                                 : 96.0 kb/s
Channel(s)                               : 6 channels
Channel positions                        : Front: L C R, Side: L R, LFE
Sampling rate                            : 48.0 kHz / 24.0 kHz
Frame rate                               : 23.438 FPS (1024 spf)
Compression mode                         : Lossy
Delay relative to video                  : 40 ms
Stream size                              : 16.3 MiB (11%)
Title                                    : Violet Evergarden - 06 1080p Bluray x265[10Bit] - DZY
Language                                 : Japanese
Default                                  : Yes
Forced                                   : No

Text
ID                                       : 3
Format                                   : ASS
Codec ID                                 : S_TEXT/ASS
Codec ID/Info                            : Advanced Sub Station Alpha
Duration                                 : 23 min 37 s
Bit rate                                 : 7 967 b/s
Count of elements                        : 1924
Compression mode                         : Lossless
Stream size                              : 1.35 MiB (1%)
Language                                 : English
Default                                  : No
Forced                                   : No

Menu
00:00:00.000                             : en:Intro
00:01:13.991                             : en:OP
00:02:44.039                             : en:A
00:10:19.035                             : en:B
00:22:21.423                             : en:ED

Other Files in this Torrent
Violet Evergarden - 06 1080p Bluray x265[10Bit] - DZY.mkv
beta
Anime DDL+NZB mirror
Current Time: 16/12/2019 08:31



About/FAQs