Violet Evergarden - 01 1080p Bluray x265[10Bit] - DZY.mkv


File Size197.0 MB (206,575,271 bytes)
DownloadClickNUpload | DiskoKosmiko | Go4Up | Jheberg | MultiUp | OpenLoad | Sendspace | SolidFiles | ZippyShare
Encrypted DownloadDirect
Password:
HashesCRC32: 29E2E624, MD5: A4D771B8F6954E87F462C6DF5002A5BD, SHA1: 1544001B1A59D79DC53CDE84590193A441BD9F77, SHA256: C4A7E27013AA766B40E13B7213311B6E872685EEE5450C50D5E5631F7A11F7EF, ED2K: 81B48E8038F249176A5EABD6A1A2E41E
Screenshots
screenshotscreenshotscreenshotscreenshotscreenshot
SubtitlesAll Attachments | eng [ASS]
Additional Info
General
Unique ID                                : 196135245960240972415221677893214607789 (0x938E463AC876DFCFBDA10646623919AD)
Complete name                            : Violet Evergarden - 01 1080p Bluray x265[10Bit] - DZY.mkv
Format                                   : Matroska
Format version                           : Version 4 / Version 2
File size                                : 197 MiB
Duration                                 : 23 min 40 s
Overall bit rate                         : 1 164 kb/s
Movie name                               : Violet Evergarden - 01 1080p Bluray x265[10Bit] - DZY
Encoded date                             : UTC 2018-07-08 21:24:22
Writing application                      : mkvmerge v15.0.0 ('Duel with the Devil') 64-bit
Writing library                          : libebml v1.3.5 + libmatroska v1.4.5
Attachments                              : Cabin-Bold.otf / Cabin-BoldItalic.otf / FOT-KleePro-DB-Str.otf / IwaMinPro-Md-Kami.ttf

Video
ID                                       : 1
Format                                   : HEVC
Format/Info                              : High Efficiency Video Coding
Format profile                           : Main 10@L8.5@Main
Codec ID                                 : V_MPEGH/ISO/HEVC
Duration                                 : 23 min 40 s
Bit rate                                 : 1 062 kb/s
Width                                    : 1 920 pixels
Height                                   : 1 080 pixels
Display aspect ratio                     : 16:9
Frame rate mode                          : Constant
Frame rate                               : 23.976 (24000/1001) FPS
Color space                              : YUV
Chroma subsampling                       : 4:2:0
Bit depth                                : 10 bits
Bits/(Pixel*Frame)                       : 0.021
Stream size                              : 180 MiB (91%)
Title                                    : Violet Evergarden - 01 1080p Bluray x265[10Bit] - DZY
Language                                 : Japanese
Default                                  : Yes
Forced                                   : No
Color range                              : Limited
Color primaries                          : BT.709
Transfer characteristics                 : BT.709
Matrix coefficients                      : BT.709

Audio
ID                                       : 2
Format                                   : AAC
Format/Info                              : Advanced Audio Codec
Format profile                           : HE-AAC / LC
Codec ID                                 : A_AAC
Duration                                 : 23 min 39 s
Bit rate                                 : 96.0 kb/s
Channel(s)                               : 6 channels
Channel positions                        : Front: L C R, Side: L R, LFE
Sampling rate                            : 48.0 kHz / 24.0 kHz
Frame rate                               : 23.438 FPS (1024 spf)
Compression mode                         : Lossy
Delay relative to video                  : 40 ms
Stream size                              : 16.3 MiB (8%)
Title                                    : Violet Evergarden - 01 1080p Bluray x265[10Bit] - DZY
Language                                 : Japanese
Default                                  : Yes
Forced                                   : No

Text
ID                                       : 3
Format                                   : ASS
Codec ID                                 : S_TEXT/ASS
Codec ID/Info                            : Advanced Sub Station Alpha
Duration                                 : 23 min 16 s
Bit rate                                 : 105 b/s
Count of elements                        : 339
Compression mode                         : Lossless
Stream size                              : 17.9 KiB (0%)
Language                                 : English
Default                                  : No
Forced                                   : No

Menu
00:00:00.000                             : en:Intro
00:02:35.030                             : en:A
00:12:01.012                             : en:B

Other Files in this Torrent
Violet Evergarden - 01 1080p Bluray x265[10Bit] - DZY.mkv
beta
Anime DDL+NZB mirror
Current Time: 24/01/2020 23:07



About/FAQs