Violet Evergarden - 12 1080p Bluray x265[10Bit] - DZY.mkv


File Size194.5 MB (203,965,689 bytes)
DownloadClickNUpload | DiskoKosmiko | Go4Up | Jheberg | MultiUp | OpenLoad | Sendspace | SolidFiles | ZippyShare
Encrypted DownloadDirect
Password:
HashesCRC32: 4875625D, MD5: 9FBEC8204431545FD7A44D5940880CF5, SHA1: 1D53C69A321381380DAB04FB526A3BCE376C0B14, SHA256: 4D6EC6EC2931720E72E3D4905758B4E18B061FBCD7120DFC0F4BE86B5A305702, ED2K: F689605A766C77DA0B1F9818CEEDBF65
Screenshots
screenshotscreenshotscreenshotscreenshotscreenshot
SubtitlesAll Attachments | eng [ASS]
Additional Info
General
Unique ID                                : 183831914531492449728923952253680524519 (0x8A4CBD2817DBC10CBDAE5FE28D0C9CE7)
Complete name                            : Violet Evergarden - 12 1080p Bluray x265[10Bit] - DZY.mkv
Format                                   : Matroska
Format version                           : Version 4 / Version 2
File size                                : 195 MiB
Duration                                 : 23 min 40 s
Overall bit rate                         : 1 149 kb/s
Movie name                               : Violet Evergarden - 12 1080p Bluray x265[10Bit] - DZY
Encoded date                             : UTC 2018-07-09 04:51:46
Writing application                      : mkvmerge v15.0.0 ('Duel with the Devil') 64-bit
Writing library                          : libebml v1.3.5 + libmatroska v1.4.5
Attachments                              : Cabin-Bold.otf / Cabin-BoldItalic.otf / FOT-KleePro-DB-Str.otf / IwaMinPro-Md-Kami.ttf / IwaOMinPro-Bd-Fate.ttf / justs.ttf

Video
ID                                       : 1
Format                                   : HEVC
Format/Info                              : High Efficiency Video Coding
Format profile                           : Main 10@L8.5@Main
Codec ID                                 : V_MPEGH/ISO/HEVC
Duration                                 : 23 min 40 s
Bit rate                                 : 1 035 kb/s
Width                                    : 1 920 pixels
Height                                   : 1 080 pixels
Display aspect ratio                     : 16:9
Frame rate mode                          : Constant
Frame rate                               : 23.976 (24000/1001) FPS
Color space                              : YUV
Chroma subsampling                       : 4:2:0
Bit depth                                : 10 bits
Bits/(Pixel*Frame)                       : 0.021
Stream size                              : 175 MiB (90%)
Title                                    : Violet Evergarden - 12 1080p Bluray x265[10Bit] - DZY
Language                                 : Japanese
Default                                  : Yes
Forced                                   : No
Color range                              : Limited
Color primaries                          : BT.709
Transfer characteristics                 : BT.709
Matrix coefficients                      : BT.709

Audio
ID                                       : 2
Format                                   : AAC
Format/Info                              : Advanced Audio Codec
Format profile                           : HE-AAC / LC
Codec ID                                 : A_AAC
Duration                                 : 23 min 39 s
Bit rate                                 : 96.0 kb/s
Channel(s)                               : 6 channels
Channel positions                        : Front: L C R, Side: L R, LFE
Sampling rate                            : 48.0 kHz / 24.0 kHz
Frame rate                               : 23.438 FPS (1024 spf)
Compression mode                         : Lossy
Delay relative to video                  : 40 ms
Stream size                              : 16.3 MiB (8%)
Title                                    : Violet Evergarden - 12 1080p Bluray x265[10Bit] - DZY
Language                                 : Japanese
Default                                  : Yes
Forced                                   : No

Text
ID                                       : 3
Format                                   : ASS
Codec ID                                 : S_TEXT/ASS
Codec ID/Info                            : Advanced Sub Station Alpha
Duration                                 : 23 min 37 s
Bit rate                                 : 7 997 b/s
Count of elements                        : 1888
Compression mode                         : Lossless
Stream size                              : 1.35 MiB (1%)
Language                                 : English
Default                                  : No
Forced                                   : No

Menu
00:00:00.000                             : en:Intro
00:01:45.022                             : en:OP
00:03:14.986                             : en:A
00:12:37.006                             : en:B
00:22:09.995                             : en:ED

Other Files in this Torrent
Violet Evergarden - 12 1080p Bluray x265[10Bit] - DZY.mkv
beta
Anime DDL+NZB mirror
Current Time: 15/12/2019 03:21



About/FAQs