Violet Evergarden - 10 1080p Bluray x265[10Bit] - DZY.mkv


File Size192.9 MB (202,308,005 bytes)
DownloadClickNUpload | DiskoKosmiko | Go4Up | Jheberg | MultiUp | OpenLoad | Sendspace | SolidFiles | ZippyShare
Encrypted DownloadDirect
Password:
HashesCRC32: 241EFC89, MD5: 3C81B7F4FB698A567C8AC630EE8E1E58, SHA1: EEA19B115784879B2C8A9EB35E317BDADD5669F3, SHA256: 9013B4631808B3630A179BE87D837C5FFCABC6B41EB0E90E3E73154916E1D522, ED2K: 291B1742F1CD6E80F2CA773FBC1CF588
Screenshots
screenshotscreenshotscreenshotscreenshotscreenshot
SubtitlesAll Attachments | eng [ASS]
Additional Info
General
Unique ID                                : 240139711535504371284636583470178624341 (0xB4A939E38AE5DF33B3E8E47DFEB1E355)
Complete name                            : Violet Evergarden - 10 1080p Bluray x265[10Bit] - DZY.mkv
Format                                   : Matroska
Format version                           : Version 4 / Version 2
File size                                : 193 MiB
Duration                                 : 26 min 35 s
Overall bit rate                         : 1 014 kb/s
Movie name                               : Violet Evergarden - 10 1080p Bluray x265[10Bit] - DZY
Encoded date                             : UTC 2018-07-09 03:09:04
Writing application                      : mkvmerge v15.0.0 ('Duel with the Devil') 64-bit
Writing library                          : libebml v1.3.5 + libmatroska v1.4.5
Attachments                              : Cabin-Bold.otf / Cabin-BoldItalic.otf / IwaMinPro-Md-Kami.ttf / justs.ttf

Video
ID                                       : 1
Format                                   : HEVC
Format/Info                              : High Efficiency Video Coding
Format profile                           : Main 10@L8.5@Main
Codec ID                                 : V_MPEGH/ISO/HEVC
Duration                                 : 26 min 35 s
Bit rate                                 : 906 kb/s
Width                                    : 1 920 pixels
Height                                   : 1 080 pixels
Display aspect ratio                     : 16:9
Frame rate mode                          : Constant
Frame rate                               : 23.976 (24000/1001) FPS
Color space                              : YUV
Chroma subsampling                       : 4:2:0
Bit depth                                : 10 bits
Bits/(Pixel*Frame)                       : 0.018
Stream size                              : 172 MiB (89%)
Title                                    : Violet Evergarden - 10 1080p Bluray x265[10Bit] - DZY
Language                                 : Japanese
Default                                  : Yes
Forced                                   : No
Color range                              : Limited
Color primaries                          : BT.709
Transfer characteristics                 : BT.709
Matrix coefficients                      : BT.709

Audio
ID                                       : 2
Format                                   : AAC
Format/Info                              : Advanced Audio Codec
Format profile                           : HE-AAC / LC
Codec ID                                 : A_AAC
Duration                                 : 26 min 35 s
Bit rate                                 : 96.0 kb/s
Channel(s)                               : 6 channels
Channel positions                        : Front: L C R, Side: L R, LFE
Sampling rate                            : 48.0 kHz / 24.0 kHz
Frame rate                               : 23.438 FPS (1024 spf)
Compression mode                         : Lossy
Delay relative to video                  : 40 ms
Stream size                              : 18.3 MiB (9%)
Title                                    : Violet Evergarden - 10 1080p Bluray x265[10Bit] - DZY
Language                                 : Japanese
Default                                  : Yes
Forced                                   : No

Text
ID                                       : 3
Format                                   : ASS
Codec ID                                 : S_TEXT/ASS
Codec ID/Info                            : Advanced Sub Station Alpha
Duration                                 : 26 min 29 s
Bit rate                                 : 7 111 b/s
Count of elements                        : 2001
Compression mode                         : Lossless
Stream size                              : 1.35 MiB (1%)
Language                                 : English
Default                                  : No
Forced                                   : No

Menu
00:00:00.000                             : en:Intro
00:00:52.052                             : en:OP
00:02:22.100                             : en:A
00:12:43.096                             : en:B
00:25:05.838                             : en:ED

Other Files in this Torrent
Violet Evergarden - 10 1080p Bluray x265[10Bit] - DZY.mkv
beta
Anime DDL+NZB mirror
Current Time: 06/12/2019 10:45



About/FAQs