Violet Evergarden - 08 1080p Bluray x265[10Bit] - DZY.mkv


File Size162.0 MB (169,885,723 bytes)
DownloadClickNUpload | DiskoKosmiko | Go4Up | Jheberg | MultiUp | OpenLoad | Sendspace | SolidFiles | ZippyShare
Encrypted DownloadDirect
Password:
HashesCRC32: 26F036D7, MD5: 2319B5FD75D25A995A7D5013906AB59E, SHA1: 1B3A5476A899855E3FC2CD445E944599CE85F15F, SHA256: D18EDF3A5330ABE2D1C42105FAEA3E371AA02751F9CA7FEFE1DFAF5AA464CED1, ED2K: 512162922922DF9EF92CF8FADF4009F7
Screenshots
screenshotscreenshotscreenshotscreenshotscreenshot
SubtitlesAll Attachments | eng [ASS]
Additional Info
General
Unique ID                                : 175958449390282364987600536791216821899 (0x84605D5AAD46AF87A543D2C99714168B)
Complete name                            : Violet Evergarden - 08 1080p Bluray x265[10Bit] - DZY.mkv
Format                                   : Matroska
Format version                           : Version 4 / Version 2
File size                                : 162 MiB
Duration                                 : 23 min 41 s
Overall bit rate                         : 956 kb/s
Movie name                               : Violet Evergarden - 08 1080p Bluray x265[10Bit] - DZY
Encoded date                             : UTC 2018-07-09 02:24:38
Writing application                      : mkvmerge v15.0.0 ('Duel with the Devil') 64-bit
Writing library                          : libebml v1.3.5 + libmatroska v1.4.5
Attachments                              : Cabin-Bold.otf / Cabin-BoldItalic.otf / FOT-KleePro-DB-Str.otf / IwaMinPro-Md-Kami.ttf / IwaOMinPro-Bd-Fate.ttf / justs.ttf

Video
ID                                       : 1
Format                                   : HEVC
Format/Info                              : High Efficiency Video Coding
Format profile                           : Main 10@L8.5@Main
Codec ID                                 : V_MPEGH/ISO/HEVC
Duration                                 : 23 min 41 s
Bit rate                                 : 842 kb/s
Width                                    : 1 920 pixels
Height                                   : 1 080 pixels
Display aspect ratio                     : 16:9
Frame rate mode                          : Constant
Frame rate                               : 23.976 (24000/1001) FPS
Color space                              : YUV
Chroma subsampling                       : 4:2:0
Bit depth                                : 10 bits
Bits/(Pixel*Frame)                       : 0.017
Stream size                              : 143 MiB (88%)
Title                                    : Violet Evergarden - 08 1080p Bluray x265[10Bit] - DZY
Language                                 : Japanese
Default                                  : Yes
Forced                                   : No
Color range                              : Limited
Color primaries                          : BT.709
Transfer characteristics                 : BT.709
Matrix coefficients                      : BT.709

Audio
ID                                       : 2
Format                                   : AAC
Format/Info                              : Advanced Audio Codec
Format profile                           : HE-AAC / LC
Codec ID                                 : A_AAC
Duration                                 : 23 min 41 s
Bit rate                                 : 96.0 kb/s
Channel(s)                               : 6 channels
Channel positions                        : Front: L C R, Side: L R, LFE
Sampling rate                            : 48.0 kHz / 24.0 kHz
Frame rate                               : 23.438 FPS (1024 spf)
Compression mode                         : Lossy
Delay relative to video                  : 40 ms
Stream size                              : 16.3 MiB (10%)
Title                                    : Violet Evergarden - 08 1080p Bluray x265[10Bit] - DZY
Language                                 : Japanese
Default                                  : Yes
Forced                                   : No

Text
ID                                       : 3
Format                                   : ASS
Codec ID                                 : S_TEXT/ASS
Codec ID/Info                            : Advanced Sub Station Alpha
Duration                                 : 23 min 37 s
Bit rate                                 : 7 959 b/s
Count of elements                        : 1904
Compression mode                         : Lossless
Stream size                              : 1.34 MiB (1%)
Language                                 : English
Default                                  : No
Forced                                   : No

Menu
00:00:00.000                             : en:Intro
00:00:49.049                             : en:OP
00:02:19.014                             : en:A
00:11:31.024                             : en:B
00:22:11.497                             : en:ED

Other Files in this Torrent
Violet Evergarden - 08 1080p Bluray x265[10Bit] - DZY.mkv
beta
Anime DDL+NZB mirror
Current Time: 12/12/2019 01:33



About/FAQs