[NoobSubs] Tokyo Ghoul 09 (720p Blu-ray 8bit AAC).mp4


File Size274.3 MB (287,657,123 bytes)
DownloadAnonFiles | Go4Up | Jheberg | MultiUp | Sendspace | SolidFiles | UsersFiles
ShareBeast: Part1, Part2
Encrypted DownloadDirect
Password:
HashesCRC32: 0223AF43, MD5: 4E33E65AEDB8C2AECA823AC7D0F80FC8, SHA1: C50AAE4B3D96E2BDE9FBD5F0072415FF6BB589E8, SHA256: 3257194AA0DBF484B5CBBD717EC4F5C67F28D1686DA92A9A513C2AD0D46ABEA0, ED2K: 0EEDCFEA783B11BBE62A93D45FE8FC46
Screenshots
screenshotscreenshotscreenshotscreenshotscreenshot
Additional Info
General
Complete name                            : [NoobSubs] Tokyo Ghoul 09 (720p Blu-ray 8bit AAC).mp4
Format                                   : MPEG-4
Format profile                           : Base Media
Codec ID                                 : isom
File size                                : 274 MiB
Duration                                 : 24mn 7s
Overall bit rate mode                    : Variable
Overall bit rate                         : 1 590 Kbps
Movie name                               : [NoobSubs] Tokyo Ghoul 09 (720p Blu-ray 8bit AAC)
Album                                    : Tokyo Ghoul
Track name/Position                      : 9
Track name/Total                         : 12
Performer                                : Subs: [BlurayDesuYo]
Encoded date                             : UTC 2015-03-24 00:21:33
Tagged date                              : UTC 2015-03-24 01:46:23
replaygain_track_gain                    : +1.31 dB
replaygain_track_minmax                  : 96,182
replaygain_track_peak                    : 1.220000
replaygain_undo                          : -1,-1

Video
ID                                       : 1
Format                                   : AVC
Format/Info                              : Advanced Video Codec
Format profile                           : High@L4.0
Format settings, CABAC                   : Yes
Format settings, ReFrames                : 6 frames
Codec ID                                 : avc1
Codec ID/Info                            : Advanced Video Coding
Duration                                 : 24mn 6s
Bit rate                                 : 1 355 Kbps
Maximum bit rate                         : 8 377 Kbps
Width                                    : 1 280 pixels
Height                                   : 720 pixels
Display aspect ratio                     : 16:9
Frame rate mode                          : Constant
Frame rate                               : 23.976 fps
Color space                              : YUV
Chroma subsampling                       : 4:2:0
Bit depth                                : 8 bits
Scan type                                : Progressive
Bits/(Pixel*Frame)                       : 0.061
Stream size                              : 234 MiB (85%)
Title                                    : 264@GPAC0.5.2-DEV-rev58-ge59cb02-master
Writing library                          : x264 core 144 r2525 40bb568
Encoding settings                        : cabac=1 / ref=6 / deblock=1:1:1 / analyse=0x3:0x133 / me=umh / subme=10 / psy=1 / psy_rd=0.40:0.00 / mixed_ref=1 / me_range=24 / chroma_me=1 / trellis=2 / 8x8dct=1 / cqm=0 / deadzone=21,11 / fast_pskip=1 / chroma_qp_offset=-2 / threads=12 / lookahead_threads=2 / sliced_threads=0 / nr=0 / decimate=1 / interlaced=0 / bluray_compat=0 / constrained_intra=0 / bframes=7 / b_pyramid=2 / b_adapt=2 / b_bias=0 / direct=3 / weightb=1 / open_gop=0 / weightp=2 / keyint=250 / keyint_min=23 / scenecut=40 / intra_refresh=0 / rc_lookahead=60 / rc=crf / mbtree=1 / crf=17.3 / qcomp=0.60 / qpmin=0 / qpmax=69 / qpstep=4 / ip_ratio=1.40 / aq=1:1.40
Encoded date                             : UTC 2015-03-24 00:21:33
Tagged date                              : UTC 2015-03-24 00:21:36

Audio
ID                                       : 2
Format                                   : AAC
Format/Info                              : Advanced Audio Codec
Format profile                           : LC
Codec ID                                 : 40
Duration                                 : 24mn 7s
Bit rate mode                            : Variable
Bit rate                                 : 232 Kbps
Maximum bit rate                         : 291 Kbps
Channel(s)                               : 2 channels
Channel positions                        : Front: L R
Sampling rate                            : 48.0 KHz
Compression mode                         : Lossy
Stream size                              : 40.0 MiB (15%)
Encoded date                             : UTC 2015-03-24 00:20:56
Tagged date                              : UTC 2015-03-24 00:21:36

Other Files in this Torrent
[NoobSubs] Tokyo Ghoul 09 (720p Blu-ray 8bit AAC).mp4
beta
Anime DDL+NZB mirror
Current Time: 13/11/2019 19:30



About/FAQs