[NoobSubs] Tokyo Ghoul 03 (720p Blu-ray 8bit AAC).mp4


File Size291.0 MB (305,131,030 bytes)
DownloadAnonFiles | Go4Up | Jheberg | MultiUp | Sendspace | SolidFiles | UsersFiles
ShareBeast: Part1, Part2
Encrypted DownloadDirect
Password:
HashesCRC32: 6F0DE0B6, MD5: B4DDAD3141F33DD03D3B4A2E87E17A8B, SHA1: 6C8BCB630D66D82C883647401061B05384B5A263, SHA256: 65B6DC8ED6803DF9A560AEA93325F108032A8356BE04D98F74AC84E8006543A9, ED2K: 2D5A09B54BE5EAC95D78AE10697BB365
Screenshots
screenshotscreenshotscreenshotscreenshotscreenshot
Additional Info
General
Complete name                            : [NoobSubs] Tokyo Ghoul 03 (720p Blu-ray 8bit AAC).mp4
Format                                   : MPEG-4
Format profile                           : Base Media
Codec ID                                 : isom
File size                                : 291 MiB
Duration                                 : 24mn 2s
Overall bit rate mode                    : Variable
Overall bit rate                         : 1 693 Kbps
Movie name                               : [NoobSubs] Tokyo Ghoul 03 (720p Blu-ray 8bit AAC)
Album                                    : Tokyo Ghoul
Track name/Position                      : 3
Track name/Total                         : 12
Performer                                : Subs: [BlurayDesuYo]
Encoded date                             : UTC 2015-03-23 21:10:22
Tagged date                              : UTC 2015-03-24 01:43:13
replaygain_track_gain                    : +1.04 dB
replaygain_track_minmax                  : 94,181
replaygain_track_peak                    : 1.130000
replaygain_undo                          : -1,-1

Video
ID                                       : 1
Format                                   : AVC
Format/Info                              : Advanced Video Codec
Format profile                           : High@L4.0
Format settings, CABAC                   : Yes
Format settings, ReFrames                : 6 frames
Codec ID                                 : avc1
Codec ID/Info                            : Advanced Video Coding
Duration                                 : 24mn 1s
Bit rate                                 : 1 463 Kbps
Maximum bit rate                         : 8 133 Kbps
Width                                    : 1 280 pixels
Height                                   : 720 pixels
Display aspect ratio                     : 16:9
Frame rate mode                          : Constant
Frame rate                               : 23.976 fps
Color space                              : YUV
Chroma subsampling                       : 4:2:0
Bit depth                                : 8 bits
Scan type                                : Progressive
Bits/(Pixel*Frame)                       : 0.066
Stream size                              : 252 MiB (86%)
Title                                    : 264@GPAC0.5.2-DEV-rev58-ge59cb02-master
Writing library                          : x264 core 144 r2525 40bb568
Encoding settings                        : cabac=1 / ref=6 / deblock=1:1:1 / analyse=0x3:0x133 / me=umh / subme=10 / psy=1 / psy_rd=0.40:0.00 / mixed_ref=1 / me_range=24 / chroma_me=1 / trellis=2 / 8x8dct=1 / cqm=0 / deadzone=21,11 / fast_pskip=1 / chroma_qp_offset=-2 / threads=12 / lookahead_threads=2 / sliced_threads=0 / nr=0 / decimate=1 / interlaced=0 / bluray_compat=0 / constrained_intra=0 / bframes=7 / b_pyramid=2 / b_adapt=2 / b_bias=0 / direct=3 / weightb=1 / open_gop=0 / weightp=2 / keyint=250 / keyint_min=23 / scenecut=40 / intra_refresh=0 / rc_lookahead=60 / rc=crf / mbtree=1 / crf=17.3 / qcomp=0.60 / qpmin=0 / qpmax=69 / qpstep=4 / ip_ratio=1.40 / aq=1:1.40
Encoded date                             : UTC 2015-03-23 21:10:22
Tagged date                              : UTC 2015-03-23 21:10:25

Audio
ID                                       : 2
Format                                   : AAC
Format/Info                              : Advanced Audio Codec
Format profile                           : LC
Codec ID                                 : 40
Duration                                 : 24mn 2s
Bit rate mode                            : Variable
Bit rate                                 : 226 Kbps
Maximum bit rate                         : 294 Kbps
Channel(s)                               : 2 channels
Channel positions                        : Front: L R
Sampling rate                            : 48.0 KHz
Compression mode                         : Lossy
Stream size                              : 38.8 MiB (13%)
Encoded date                             : UTC 2015-03-23 21:09:47
Tagged date                              : UTC 2015-03-23 21:10:25

Other Files in this Torrent
[NoobSubs] Tokyo Ghoul 03 (720p Blu-ray 8bit AAC).mp4
beta
Anime DDL+NZB mirror
Current Time: 21/07/2019 01:26



About/FAQs