[NoobSubs] Tokyo Ghoul 07 (720p Blu-ray 8bit AAC).mp4


File Size356.1 MB (373,356,335 bytes)
DownloadAnonFiles | Go4Up | Jheberg | MultiUp
  • BayFiles
  • BillionUploads
  • DepositFiles
  • Fichier
  • Free
  • HugeFiles
  • Ryushare
  • Turbobit
  • UpToBox
  • UploadHero
  • Uploaded
| SolidFiles | UsersFiles
Sendspace: Part1, Part2
ShareBeast: Part1, Part2
HashesCRC32: 09C824BF, MD5: 8902ADB71FD60B86D40DBBCD621E148A, SHA1: C496D5F459C1121731003A32426F52D2CC50FB3B, SHA256: 549D0A7CCAF2C94B994BEB1C59283CBF965E5949649CB672E5E2FAE4CCACEDED, ED2K: DFB88EF340AD725C433F9FE667468EBB
Screenshots
screenshotscreenshotscreenshotscreenshotscreenshot
Additional Info
General
Complete name                            : [NoobSubs] Tokyo Ghoul 07 (720p Blu-ray 8bit AAC).mp4
Format                                   : MPEG-4
Format profile                           : Base Media
Codec ID                                 : isom
File size                                : 356 MiB
Duration                                 : 24mn 7s
Overall bit rate mode                    : Variable
Overall bit rate                         : 2 063 Kbps
Movie name                               : [NoobSubs] Tokyo Ghoul 07 (720p Blu-ray 8bit AAC)
Album                                    : Tokyo Ghoul
Track name/Position                      : 7
Track name/Total                         : 12
Performer                                : Subs: [BlurayDesuYo]
Encoded date                             : UTC 2015-03-23 23:02:31
Tagged date                              : UTC 2015-03-24 01:45:10
replaygain_track_gain                    : +0.58 dB
replaygain_track_minmax                  : 99,181
replaygain_track_peak                    : 1.150000
replaygain_undo                          : -1,-1

Video
ID                                       : 1
Format                                   : AVC
Format/Info                              : Advanced Video Codec
Format profile                           : High@L4.0
Format settings, CABAC                   : Yes
Format settings, ReFrames                : 6 frames
Codec ID                                 : avc1
Codec ID/Info                            : Advanced Video Coding
Duration                                 : 24mn 7s
Bit rate                                 : 1 819 Kbps
Maximum bit rate                         : 12.5 Mbps
Width                                    : 1 280 pixels
Height                                   : 720 pixels
Display aspect ratio                     : 16:9
Frame rate mode                          : Constant
Frame rate                               : 23.976 fps
Color space                              : YUV
Chroma subsampling                       : 4:2:0
Bit depth                                : 8 bits
Scan type                                : Progressive
Bits/(Pixel*Frame)                       : 0.082
Stream size                              : 314 MiB (88%)
Title                                    : 264@GPAC0.5.2-DEV-rev58-ge59cb02-master
Writing library                          : x264 core 144 r2525 40bb568
Encoding settings                        : cabac=1 / ref=6 / deblock=1:1:1 / analyse=0x3:0x133 / me=umh / subme=10 / psy=1 / psy_rd=0.40:0.00 / mixed_ref=1 / me_range=24 / chroma_me=1 / trellis=2 / 8x8dct=1 / cqm=0 / deadzone=21,11 / fast_pskip=1 / chroma_qp_offset=-2 / threads=12 / lookahead_threads=2 / sliced_threads=0 / nr=0 / decimate=1 / interlaced=0 / bluray_compat=0 / constrained_intra=0 / bframes=7 / b_pyramid=2 / b_adapt=2 / b_bias=0 / direct=3 / weightb=1 / open_gop=0 / weightp=2 / keyint=250 / keyint_min=23 / scenecut=40 / intra_refresh=0 / rc_lookahead=60 / rc=crf / mbtree=1 / crf=17.3 / qcomp=0.60 / qpmin=0 / qpmax=69 / qpstep=4 / ip_ratio=1.40 / aq=1:1.40
Encoded date                             : UTC 2015-03-23 23:02:31
Tagged date                              : UTC 2015-03-23 23:02:36

Audio
ID                                       : 2
Format                                   : AAC
Format/Info                              : Advanced Audio Codec
Format profile                           : LC
Codec ID                                 : 40
Duration                                 : 24mn 7s
Bit rate mode                            : Variable
Bit rate                                 : 240 Kbps
Maximum bit rate                         : 288 Kbps
Channel(s)                               : 2 channels
Channel positions                        : Front: L R
Sampling rate                            : 48.0 KHz
Compression mode                         : Lossy
Stream size                              : 41.4 MiB (12%)
Encoded date                             : UTC 2015-03-23 23:01:44
Tagged date                              : UTC 2015-03-23 23:02:36

Other Files in this Torrent
[NoobSubs] Tokyo Ghoul 07 (720p Blu-ray 8bit AAC).mp4
beta
Anime DDL+NZB mirror
Current Time: 10/07/2020 02:30



About/FAQs