[NoobSubs] Tokyo Ghoul 11 (720p Blu-ray 8bit AAC).mp4


File Size329.3 MB (345,257,529 bytes)
DownloadAnonFiles | Go4Up | Jheberg | MultiUp | SolidFiles | UsersFiles
Sendspace: Part1, Part2
ShareBeast: Part1, Part2
Encrypted DownloadDirect
Password:
HashesCRC32: 8D2A0531, MD5: C93CB307F9CB4095786595970919F03B, SHA1: 577A9F6734602F5BE9C29C81A85EBC651A32FC96, SHA256: AE2C73F003F9A07A89C173013AA701FA95331B8C790245B92ABBA1889E8A402E, ED2K: 6F9DF06C887BC70EF7E183BE2A0E624E
Screenshots
screenshotscreenshotscreenshotscreenshotscreenshot
Additional Info
General
Complete name                            : [NoobSubs] Tokyo Ghoul 11 (720p Blu-ray 8bit AAC).mp4
Format                                   : MPEG-4
Format profile                           : Base Media
Codec ID                                 : isom
File size                                : 329 MiB
Duration                                 : 24mn 7s
Overall bit rate mode                    : Variable
Overall bit rate                         : 1 909 Kbps
Movie name                               : [NoobSubs] Tokyo Ghoul 11 (720p Blu-ray 8bit AAC)
Album                                    : Tokyo Ghoul
Track name/Position                      : 11
Track name/Total                         : 12
Performer                                : Subs: [BlurayDesuYo]
Encoded date                             : UTC 2015-03-24 01:40:59
Tagged date                              : UTC 2015-03-24 01:47:17
replaygain_track_gain                    : +1.59 dB
replaygain_track_minmax                  : 89,181
replaygain_track_peak                    : 0.860000
replaygain_undo                          : 1,1

Video
ID                                       : 1
Format                                   : AVC
Format/Info                              : Advanced Video Codec
Format profile                           : High@L4.0
Format settings, CABAC                   : Yes
Format settings, ReFrames                : 6 frames
Codec ID                                 : avc1
Codec ID/Info                            : Advanced Video Coding
Duration                                 : 24mn 7s
Bit rate                                 : 1 661 Kbps
Maximum bit rate                         : 8 744 Kbps
Width                                    : 1 280 pixels
Height                                   : 720 pixels
Display aspect ratio                     : 16:9
Frame rate mode                          : Constant
Frame rate                               : 23.976 fps
Color space                              : YUV
Chroma subsampling                       : 4:2:0
Bit depth                                : 8 bits
Scan type                                : Progressive
Bits/(Pixel*Frame)                       : 0.075
Stream size                              : 286 MiB (87%)
Title                                    : 264@GPAC0.5.2-DEV-rev58-ge59cb02-master
Writing library                          : x264 core 144 r2525 40bb568
Encoding settings                        : cabac=1 / ref=6 / deblock=1:1:1 / analyse=0x3:0x133 / me=umh / subme=10 / psy=1 / psy_rd=0.40:0.00 / mixed_ref=1 / me_range=24 / chroma_me=1 / trellis=2 / 8x8dct=1 / cqm=0 / deadzone=21,11 / fast_pskip=1 / chroma_qp_offset=-2 / threads=12 / lookahead_threads=2 / sliced_threads=0 / nr=0 / decimate=1 / interlaced=0 / bluray_compat=0 / constrained_intra=0 / bframes=7 / b_pyramid=2 / b_adapt=2 / b_bias=0 / direct=3 / weightb=1 / open_gop=0 / weightp=2 / keyint=250 / keyint_min=23 / scenecut=40 / intra_refresh=0 / rc_lookahead=60 / rc=crf / mbtree=1 / crf=17.3 / qcomp=0.60 / qpmin=0 / qpmax=69 / qpstep=4 / ip_ratio=1.40 / aq=1:1.40
Encoded date                             : UTC 2015-03-24 01:40:59
Tagged date                              : UTC 2015-03-24 01:41:02

Audio
ID                                       : 2
Format                                   : AAC
Format/Info                              : Advanced Audio Codec
Format profile                           : LC
Codec ID                                 : 40
Duration                                 : 24mn 7s
Bit rate mode                            : Variable
Bit rate                                 : 244 Kbps
Maximum bit rate                         : 304 Kbps
Channel(s)                               : 2 channels
Channel positions                        : Front: L R
Sampling rate                            : 48.0 KHz
Compression mode                         : Lossy
Stream size                              : 42.1 MiB (13%)
Encoded date                             : UTC 2015-03-24 01:40:23
Tagged date                              : UTC 2015-03-24 01:41:02

Other Files in this Torrent
[NoobSubs] Tokyo Ghoul 11 (720p Blu-ray 8bit AAC).mp4
beta
Anime DDL+NZB mirror
Current Time: 18/07/2019 22:36



About/FAQs