[NoobSubs] Tokyo Ghoul 06 (720p Blu-ray 8bit AAC).mp4


File Size391.8 MB (410,789,363 bytes)
DownloadAnonFiles | Go4Up | Jheberg | MultiUp | SolidFiles | UsersFiles
Sendspace: Part1, Part2
ShareBeast: Part1, Part2
Encrypted DownloadDirect
Password:
HashesCRC32: 79DC05A0, MD5: A03787EA2B447B1BFB83233E6318E31B, SHA1: 879796CF47D0BEDD138C531315B27AA4BEAC8D95, SHA256: 3DCAA29EA1304B8397E367355E793E103014AE8AA9186A43B2895AA2EA51337F, ED2K: D4728A7C136FAAEFED5F2D2A4DA28F19
Screenshots
screenshotscreenshotscreenshotscreenshotscreenshot
Additional Info
General
Complete name                            : [NoobSubs] Tokyo Ghoul 06 (720p Blu-ray 8bit AAC).mp4
Format                                   : MPEG-4
Format profile                           : Base Media
Codec ID                                 : isom
File size                                : 392 MiB
Duration                                 : 24mn 1s
Overall bit rate mode                    : Variable
Overall bit rate                         : 2 279 Kbps
Movie name                               : [NoobSubs] Tokyo Ghoul 06 (720p Blu-ray 8bit AAC)
Album                                    : Tokyo Ghoul
Track name/Position                      : 6
Track name/Total                         : 12
Performer                                : Subs: [BlurayDesuYo]
Encoded date                             : UTC 2015-03-23 22:33:00
Tagged date                              : UTC 2015-03-24 01:44:33
replaygain_track_gain                    : +1.35 dB
replaygain_track_minmax                  : 96,181
replaygain_track_peak                    : 1.000000

Video
ID                                       : 1
Format                                   : AVC
Format/Info                              : Advanced Video Codec
Format profile                           : High@L4.0
Format settings, CABAC                   : Yes
Format settings, ReFrames                : 6 frames
Codec ID                                 : avc1
Codec ID/Info                            : Advanced Video Coding
Duration                                 : 24mn 1s
Bit rate                                 : 2 040 Kbps
Maximum bit rate                         : 12.0 Mbps
Width                                    : 1 280 pixels
Height                                   : 720 pixels
Display aspect ratio                     : 16:9
Frame rate mode                          : Constant
Frame rate                               : 23.976 fps
Color space                              : YUV
Chroma subsampling                       : 4:2:0
Bit depth                                : 8 bits
Scan type                                : Progressive
Bits/(Pixel*Frame)                       : 0.092
Stream size                              : 351 MiB (90%)
Title                                    : 264@GPAC0.5.2-DEV-rev58-ge59cb02-master
Writing library                          : x264 core 144 r2525 40bb568
Encoding settings                        : cabac=1 / ref=6 / deblock=1:1:1 / analyse=0x3:0x133 / me=umh / subme=10 / psy=1 / psy_rd=0.40:0.00 / mixed_ref=1 / me_range=24 / chroma_me=1 / trellis=2 / 8x8dct=1 / cqm=0 / deadzone=21,11 / fast_pskip=1 / chroma_qp_offset=-2 / threads=12 / lookahead_threads=2 / sliced_threads=0 / nr=0 / decimate=1 / interlaced=0 / bluray_compat=0 / constrained_intra=0 / bframes=7 / b_pyramid=2 / b_adapt=2 / b_bias=0 / direct=3 / weightb=1 / open_gop=0 / weightp=2 / keyint=250 / keyint_min=23 / scenecut=40 / intra_refresh=0 / rc_lookahead=60 / rc=crf / mbtree=1 / crf=17.3 / qcomp=0.60 / qpmin=0 / qpmax=69 / qpstep=4 / ip_ratio=1.40 / aq=1:1.40
Encoded date                             : UTC 2015-03-23 22:33:00
Tagged date                              : UTC 2015-03-23 22:33:04

Audio
ID                                       : 2
Format                                   : AAC
Format/Info                              : Advanced Audio Codec
Format profile                           : LC
Codec ID                                 : 40
Duration                                 : 24mn 1s
Bit rate mode                            : Variable
Bit rate                                 : 235 Kbps
Maximum bit rate                         : 299 Kbps
Channel(s)                               : 2 channels
Channel positions                        : Front: L R
Sampling rate                            : 48.0 KHz
Compression mode                         : Lossy
Stream size                              : 40.5 MiB (10%)
Encoded date                             : UTC 2015-03-23 22:32:24
Tagged date                              : UTC 2015-03-23 22:33:04

Other Files in this Torrent
[NoobSubs] Tokyo Ghoul 06 (720p Blu-ray 8bit AAC).mp4
beta
Anime DDL+NZB mirror
Current Time: 12/11/2019 07:57



About/FAQs