[NoobSubs] Tokyo Ghoul NCOP (720p Blu-ray 8bit AAC).mp4


File Size40.28 MB (42,240,865 bytes)
DownloadAnonFiles | Go4Up | Jheberg | MultiUp | Sendspace | ShareBeast | SolidFiles | UsersFiles
Encrypted DownloadDirect
Password:
HashesCRC32: 1A21D532, MD5: 06DDD8DF010811A54E471474170918D0, SHA1: 630A80620E3B84B7EB60E2454333F0281BE6F584, SHA256: 016D8CA149CD5F2A06CB99BCD0D80D6395C381723B9A5DC9E8397D3B893B0313, ED2K: B8BD6295D3B9F3FC0064E45F74D79675
Screenshots
screenshotscreenshot
Additional Info
General
Complete name                            : [NoobSubs] Tokyo Ghoul NCOP (720p Blu-ray 8bit AAC).mp4
Format                                   : MPEG-4
Format profile                           : Base Media
Codec ID                                 : isom
File size                                : 40.3 MiB
Duration                                 : 1mn 30s
Overall bit rate mode                    : Variable
Overall bit rate                         : 3 752 Kbps
Movie name                               : [NoobSubs] Tokyo Ghoul NCOP (720p Blu-ray 8bit AAC)
Album                                    : Tokyo Ghoul
Track name/Position                      : 1
Track name/Total                         : 1
Performer                                : Subs: [BlurayDesuYo]
Encoded date                             : UTC 2015-03-24 04:42:31
Tagged date                              : UTC 2015-03-24 06:07:26
replaygain_track_gain                    : +0.41 dB
replaygain_track_minmax                  : 99,178
replaygain_track_peak                    : 0.270000
replaygain_undo                          : 2,2

Video
ID                                       : 1
Format                                   : AVC
Format/Info                              : Advanced Video Codec
Format profile                           : High@L4.0
Format settings, CABAC                   : Yes
Format settings, ReFrames                : 6 frames
Codec ID                                 : avc1
Codec ID/Info                            : Advanced Video Coding
Duration                                 : 1mn 30s
Bit rate                                 : 3 501 Kbps
Maximum bit rate                         : 8 401 Kbps
Width                                    : 1 280 pixels
Height                                   : 720 pixels
Display aspect ratio                     : 16:9
Frame rate mode                          : Constant
Frame rate                               : 23.976 fps
Color space                              : YUV
Chroma subsampling                       : 4:2:0
Bit depth                                : 8 bits
Scan type                                : Progressive
Bits/(Pixel*Frame)                       : 0.158
Stream size                              : 37.6 MiB (93%)
Title                                    : 264@GPAC0.5.2-DEV-rev58-ge59cb02-master
Writing library                          : x264 core 144 r2525 40bb568
Encoding settings                        : cabac=1 / ref=6 / deblock=1:1:1 / analyse=0x3:0x133 / me=umh / subme=10 / psy=1 / psy_rd=0.40:0.00 / mixed_ref=1 / me_range=24 / chroma_me=1 / trellis=2 / 8x8dct=1 / cqm=0 / deadzone=21,11 / fast_pskip=1 / chroma_qp_offset=-2 / threads=12 / lookahead_threads=2 / sliced_threads=0 / nr=0 / decimate=1 / interlaced=0 / bluray_compat=0 / constrained_intra=0 / bframes=7 / b_pyramid=2 / b_adapt=2 / b_bias=0 / direct=3 / weightb=1 / open_gop=0 / weightp=2 / keyint=250 / keyint_min=23 / scenecut=40 / intra_refresh=0 / rc_lookahead=60 / rc=crf / mbtree=1 / crf=17.3 / qcomp=0.60 / qpmin=0 / qpmax=69 / qpstep=4 / ip_ratio=1.40 / aq=1:1.50
Encoded date                             : UTC 2015-03-24 04:42:31
Tagged date                              : UTC 2015-03-24 04:42:31

Audio
ID                                       : 2
Format                                   : AAC
Format/Info                              : Advanced Audio Codec
Format profile                           : LC
Codec ID                                 : 40
Duration                                 : 1mn 30s
Bit rate mode                            : Variable
Bit rate                                 : 247 Kbps
Maximum bit rate                         : 275 Kbps
Channel(s)                               : 2 channels
Channel positions                        : Front: L R
Sampling rate                            : 48.0 KHz
Compression mode                         : Lossy
Stream size                              : 2.65 MiB (7%)
Encoded date                             : UTC 2015-03-24 04:42:28
Tagged date                              : UTC 2015-03-24 04:42:31

Other Files in this Torrent
[NoobSubs] Tokyo Ghoul NCOP (720p Blu-ray 8bit AAC).mp4
beta
Anime DDL+NZB mirror
Current Time: 22/11/2019 11:29



About/FAQs