[NoobSubs] Tokyo Ghoul Extra02 (720p Blu-ray 8bit AAC).mp4


File Size110.7 MB (116,025,925 bytes)
DownloadAnonFiles | Go4Up | Jheberg | MultiUp
  • BayFiles
  • BillionUploads
  • DepositFiles
  • Fichier
  • Free
  • HugeFiles
  • Ryushare
  • Turbobit
  • UpToBox
  • UploadHero
  • Uploaded
  • ZippyShare
| Sendspace | ShareBeast | SolidFiles | UsersFiles
Encrypted DownloadDirect
Password:
HashesCRC32: D4898A56, MD5: C946E415EAB4D2E46C427D1D3DF26FDC, SHA1: 669B54AC196AF4F2B9D5CACE35B502623F73DF60, SHA256: 8FC134014AC6E1BDD0060CBD4FC10BAC517C00052BF8695F13654779DCDF7E10, ED2K: 4A6134160E2C7125F2369DA92FA93C99
Screenshots
screenshotscreenshotscreenshotscreenshotscreenshot
Additional Info
General
Complete name                            : [NoobSubs] Tokyo Ghoul Extra02 (720p Blu-ray 8bit AAC).mp4
Format                                   : MPEG-4
Format profile                           : Base Media
Codec ID                                 : isom
File size                                : 111 MiB
Duration                                 : 5mn 27s
Overall bit rate mode                    : Variable
Overall bit rate                         : 2 838 Kbps
Movie name                               : [NoobSubs] Tokyo Ghoul Extra02 (720p Blu-ray 8bit AAC)
Album                                    : Tokyo Ghoul
Track name/Position                      : 2
Track name/Total                         : 2
Performer                                : Subs: [BlurayDesuYo]
Encoded date                             : UTC 2015-03-24 04:35:01
Tagged date                              : UTC 2015-03-24 06:07:08
replaygain_track_gain                    : +0.48 dB
replaygain_track_minmax                  : 95,179
replaygain_track_peak                    : 0.820000
replaygain_undo                          : 1,1

Video
ID                                       : 1
Format                                   : AVC
Format/Info                              : Advanced Video Codec
Format profile                           : High@L4.0
Format settings, CABAC                   : Yes
Format settings, ReFrames                : 6 frames
Codec ID                                 : avc1
Codec ID/Info                            : Advanced Video Coding
Duration                                 : 5mn 27s
Bit rate                                 : 2 598 Kbps
Maximum bit rate                         : 13.3 Mbps
Width                                    : 1 280 pixels
Height                                   : 720 pixels
Display aspect ratio                     : 16:9
Frame rate mode                          : Constant
Frame rate                               : 23.976 fps
Color space                              : YUV
Chroma subsampling                       : 4:2:0
Bit depth                                : 8 bits
Scan type                                : Progressive
Bits/(Pixel*Frame)                       : 0.118
Stream size                              : 101 MiB (92%)
Title                                    : 264@GPAC0.5.2-DEV-rev58-ge59cb02-master
Writing library                          : x264 core 144 r2525 40bb568
Encoding settings                        : cabac=1 / ref=6 / deblock=1:1:1 / analyse=0x3:0x133 / me=umh / subme=10 / psy=1 / psy_rd=0.40:0.00 / mixed_ref=1 / me_range=24 / chroma_me=1 / trellis=2 / 8x8dct=1 / cqm=0 / deadzone=21,11 / fast_pskip=1 / chroma_qp_offset=-2 / threads=12 / lookahead_threads=2 / sliced_threads=0 / nr=0 / decimate=1 / interlaced=0 / bluray_compat=0 / constrained_intra=0 / bframes=7 / b_pyramid=2 / b_adapt=2 / b_bias=0 / direct=3 / weightb=1 / open_gop=0 / weightp=2 / keyint=250 / keyint_min=23 / scenecut=40 / intra_refresh=0 / rc_lookahead=60 / rc=crf / mbtree=1 / crf=17.3 / qcomp=0.60 / qpmin=0 / qpmax=69 / qpstep=4 / ip_ratio=1.40 / aq=1:1.50
Encoded date                             : UTC 2015-03-24 04:35:01
Tagged date                              : UTC 2015-03-24 04:35:02

Audio
ID                                       : 2
Format                                   : AAC
Format/Info                              : Advanced Audio Codec
Format profile                           : LC
Codec ID                                 : 40
Duration                                 : 5mn 27s
Bit rate mode                            : Variable
Bit rate                                 : 237 Kbps
Maximum bit rate                         : 299 Kbps
Channel(s)                               : 2 channels
Channel positions                        : Front: L R
Sampling rate                            : 48.0 KHz
Compression mode                         : Lossy
Stream size                              : 9.23 MiB (8%)
Encoded date                             : UTC 2015-03-24 04:34:53
Tagged date                              : UTC 2015-03-24 04:35:02

Other Files in this Torrent
[NoobSubs] Tokyo Ghoul Extra02 (720p Blu-ray 8bit AAC).mp4
beta
Anime DDL+NZB mirror
Current Time: 13/11/2019 20:07



About/FAQs