File Size229.8 MB (240,953,850 bytes)
DownloadGo4Up | Jheberg | MultiUp
  • ClickNupload
  • Fichier
  • Filerio
  • Free
  • Fufox
  • HugeFiles
  • Mightyupload
  • ToutBox
  • Turbobit
  • UpToBox
  • Uplea
  • UploadBaz
  • Uploadable
  • Uploaded
  • Uppit
  • Userscloud
| OpenLoad | Sendspace | SolidFiles | UsersCloud
HashesCRC32: 0EDCE0B3, MD5: FB958F5C39F241857724D54D6B58C254, SHA1: 5424AC248BC47E8B3BA0689DBCEF984ACFF8AD0B, SHA256: A434C426BBA3DA998E42E02E37CE0C4D68A0AE408893BCAFD8C81F899AA29D56, ED2K: 8737547F2BDD1FF5ADAB047E8123F1B0
Screenshots
screenshotscreenshotscreenshotscreenshotscreenshot
Additional Info
General
Complete name                            : [NoobSubs] One-Punch Man OVA (576p DVD 8bit AAC).mp4
Format                                   : MPEG-4
Format profile                           : Base Media
Codec ID                                 : isom (isom/avc1)
File size                                : 230 MiB
Duration                                 : 24 min 0 s
Overall bit rate mode                    : Variable
Overall bit rate                         : 1 339 kb/s
Movie name                               : [NoobSubs] One-Punch Man OVA (576p DVD 8bit AAC)
Album                                    : One-Punch Man OVA
Track name/Position                      : 1
Track name/Total                         : 1
Performer                                : Subs: Re-styled [ADZ] - [Cthuko] - [SallySubs]
Encoded date                             : UTC 2016-12-03 02:59:20
Tagged date                              : UTC 2016-12-03 03:04:30
replaygain_track_gain                    : +1.35 dB
replaygain_track_minmax                  : 93,179
replaygain_track_peak                    : 1.040000

Video
ID                                       : 1
Format                                   : AVC
Format/Info                              : Advanced Video Codec
Format profile                           : High@L3.1
Format settings, CABAC                   : Yes
Format settings, ReFrames                : 6 frames
Codec ID                                 : avc1
Codec ID/Info                            : Advanced Video Coding
Duration                                 : 23 min 59 s
Bit rate                                 : 1 142 kb/s
Maximum bit rate                         : 5 664 kb/s
Width                                    : 1 024 pixels
Height                                   : 576 pixels
Display aspect ratio                     : 16:9
Frame rate mode                          : Constant
Frame rate                               : 23.976 (24000/1001) FPS
Color space                              : YUV
Chroma subsampling                       : 4:2:0
Bit depth                                : 8 bits
Scan type                                : Progressive
Bits/(Pixel*Frame)                       : 0.081
Stream size                              : 196 MiB (85%)
Title                                    : 264@GPAC0.6.2-DEV-rev681-g32e98cd-master
Writing library                          : x264 core 148 r2721 72d53ab
Encoding settings                        : cabac=1 / ref=6 / deblock=1:1:1 / analyse=0x3:0x133 / me=umh / subme=10 / psy=1 / psy_rd=0.40:0.00 / mixed_ref=1 / me_range=24 / chroma_me=1 / trellis=2 / 8x8dct=1 / cqm=0 / deadzone=21,11 / fast_pskip=1 / chroma_qp_offset=-2 / threads=12 / lookahead_threads=2 / sliced_threads=0 / nr=0 / decimate=1 / interlaced=0 / bluray_compat=0 / constrained_intra=0 / bframes=7 / b_pyramid=2 / b_adapt=2 / b_bias=0 / direct=3 / weightb=1 / open_gop=0 / weightp=2 / keyint=250 / keyint_min=23 / scenecut=40 / intra_refresh=0 / rc_lookahead=60 / rc=crf / mbtree=1 / crf=17.3 / qcomp=0.60 / qpmin=0 / qpmax=69 / qpstep=4 / ip_ratio=1.40 / aq=1:1.00
Encoded date                             : UTC 2016-12-03 02:59:20
Tagged date                              : UTC 2016-12-03 02:59:24

Audio
ID                                       : 2
Format                                   : AAC
Format/Info                              : Advanced Audio Codec
Format profile                           : LC
Codec ID                                 : 40
Duration                                 : 24 min 0 s
Bit rate mode                            : Variable
Bit rate                                 : 192 kb/s
Maximum bit rate                         : 261 kb/s
Channel(s)                               : 2 channels
Channel positions                        : Front: L R
Sampling rate                            : 48.0 kHz
Frame rate                               : 46.875 FPS (1024 spf)
Compression mode                         : Lossy
Stream size                              : 33.1 MiB (14%)
Title                                    : aac@GPAC0.6.2-DEV-rev681-g32e98cd-master
Encoded date                             : UTC 2016-12-03 02:59:22
Tagged date                              : UTC 2016-12-03 02:59:24

Other Files in this Torrent
[NoobSubs] One-Punch Man OVA (576p DVD 8bit AAC).mp4
beta
Anime DDL+NZB mirror
Current Time: 07/12/2021 03:51



About/FAQs

Discord