Extras/[NoobSubs] One-Punch Man BD Menu Vol.1 (1080p Blu-ray 8bit AAC).mp4


File Size10.64 MB (11,156,035 bytes)
DownloadGo4Up | Jheberg | MultiUp
  • ClickNupload
  • Fichier
  • Filerio
  • Free
  • Fufox
  • HugeFiles
  • Mightyupload
  • ToutBox
  • Turbobit
  • UpToBox
  • Uplea
  • UploadBaz
  • Uploadable
  • Uploaded
  • Uppit
  • Userscloud
  • ZippyShare
| OpenLoad | Sendspace | SolidFiles | UsersCloud
HashesCRC32: 3D180986, MD5: A90DFEB7640669F0F258C4046F12B782, SHA1: 9BCD22CE3375C0C18E5087D1A4C89B7E4A228185, SHA256: 5D89ABCF527F286420721CBC2EB2669CEA2ACC6497A133E72F92BE22F346AE74, ED2K: D9E74368A871F1E5E6CD87D4F3B16104
Screenshots
screenshot
Additional Info
General
Complete name                            : [NoobSubs] One-Punch Man BD Menu Vol.1 (1080p Blu-ray 8bit AAC).mp4
Format                                   : MPEG-4
Format profile                           : Base Media
Codec ID                                 : isom (isom/avc1)
File size                                : 10.6 MiB
Duration                                 : 41 s 600 ms
Overall bit rate mode                    : Variable
Overall bit rate                         : 2 145 kb/s
Movie name                               : [NoobSubs] One-Punch Man BD Menu Vol.1 (1080p Blu-ray 8bit AAC)
Album                                    : One-Punch Man
Track name/Position                      : 1
Track name/Total                         : 6
Performer                                : Subs: None
Encoded date                             : UTC 2016-12-01 19:34:07
Tagged date                              : UTC 2016-12-01 19:41:30
replaygain_track_gain                    : +1.63 dB
replaygain_track_minmax                  : 90,175
replaygain_track_peak                    : 0.490000
replaygain_undo                          : -2,-2

Video
ID                                       : 1
Format                                   : AVC
Format/Info                              : Advanced Video Codec
Format profile                           : High@L4
Format settings, CABAC                   : Yes
Format settings, ReFrames                : 4 frames
Codec ID                                 : avc1
Codec ID/Info                            : Advanced Video Coding
Duration                                 : 41 s 540 ms
Bit rate                                 : 1 853 kb/s
Maximum bit rate                         : 15.1 Mb/s
Width                                    : 1 920 pixels
Height                                   : 1 080 pixels
Display aspect ratio                     : 16:9
Frame rate mode                          : Constant
Frame rate                               : 23.976 (24000/1001) FPS
Color space                              : YUV
Chroma subsampling                       : 4:2:0
Bit depth                                : 8 bits
Scan type                                : Progressive
Bits/(Pixel*Frame)                       : 0.037
Stream size                              : 9.18 MiB (86%)
Title                                    : 264@GPAC0.6.2-DEV-rev681-g32e98cd-master
Writing library                          : x264 core 148 r2721 72d53ab
Encoding settings                        : cabac=1 / ref=4 / deblock=1:1:1 / analyse=0x3:0x133 / me=umh / subme=10 / psy=1 / psy_rd=0.40:0.00 / mixed_ref=1 / me_range=24 / chroma_me=1 / trellis=2 / 8x8dct=1 / cqm=0 / deadzone=21,11 / fast_pskip=1 / chroma_qp_offset=-2 / threads=12 / lookahead_threads=2 / sliced_threads=0 / nr=0 / decimate=1 / interlaced=0 / bluray_compat=0 / constrained_intra=0 / bframes=7 / b_pyramid=2 / b_adapt=2 / b_bias=0 / direct=3 / weightb=1 / open_gop=0 / weightp=2 / keyint=250 / keyint_min=23 / scenecut=40 / intra_refresh=0 / rc_lookahead=60 / rc=crf / mbtree=1 / crf=17.3 / qcomp=0.60 / qpmin=0 / qpmax=69 / qpstep=4 / ip_ratio=1.40 / aq=1:1.40
Encoded date                             : UTC 2016-12-01 19:34:07
Tagged date                              : UTC 2016-12-01 19:34:08

Audio
ID                                       : 2
Format                                   : AAC
Format/Info                              : Advanced Audio Codec
Format profile                           : LC
Codec ID                                 : 40
Duration                                 : 41 s 600 ms
Bit rate mode                            : Variable
Bit rate                                 : 288 kb/s
Maximum bit rate                         : 329 kb/s
Channel(s)                               : 2 channels
Channel positions                        : Front: L R
Sampling rate                            : 48.0 kHz
Frame rate                               : 46.875 FPS (1024 spf)
Compression mode                         : Lossy
Stream size                              : 1.44 MiB (14%)
Encoded date                             : UTC 2016-12-01 19:34:06
Tagged date                              : UTC 2016-12-01 19:34:08

Other Files in this Torrent
Extras/[NoobSubs] One-Punch Man BD Menu Vol.1 (1080p Blu-ray 8bit AAC).mp4
beta
Anime DDL+NZB mirror
Current Time: 09/12/2021 01:30



About/FAQs

Discord