File Size73.17 MB (76,726,705 bytes)
DownloadGo4Up | Jheberg | MultiUp
  • ClickNupload
  • Fichier
  • Filerio
  • Free
  • Fufox
  • HugeFiles
  • Mightyupload
  • ToutBox
  • Turbobit
  • UpToBox
  • Uplea
  • UploadBaz
  • Uploadable
  • Uploaded
  • Uppit
  • Userscloud
  • ZippyShare
| OpenLoad | Sendspace | SolidFiles | UsersCloud
HashesCRC32: B6A726BE, MD5: ED97164A7B7DDA9674E5016A455B6380, SHA1: 47C0C1DB39287853FFA5B841F9C1165EEBD8DBB5, SHA256: 49FF578DCA86D0857A8CF8E3A31417E5A8409EFC687ED2A4165AF222AA64950F, ED2K: 2BB10306EAA43BA155792D66DC53657A
Screenshots
screenshotscreenshot
Additional Info
General
Complete name                            : [NoobSubs] One-Punch Man NCOP (1080p Blu-ray 8bit AAC).mp4
Format                                   : MPEG-4
Format profile                           : Base Media
Codec ID                                 : isom (isom/avc1)
File size                                : 73.2 MiB
Duration                                 : 1 min 32 s
Overall bit rate mode                    : Variable
Overall bit rate                         : 6 660 kb/s
Movie name                               : [NoobSubs] One-Punch Man NCOP (1080p Blu-ray 8bit AAC)
Album                                    : One-Punch Man
Track name/Position                      : 1
Track name/Total                         : 1
Performer                                : Subs: [SallySubs]
Encoded date                             : UTC 2016-11-29 20:12:03
Tagged date                              : UTC 2016-11-30 02:47:23
replaygain_track_gain                    : +1.51 dB
replaygain_track_minmax                  : 88,175
replaygain_track_peak                    : 0.550000

Video
ID                                       : 1
Format                                   : AVC
Format/Info                              : Advanced Video Codec
Format profile                           : High@L4
Format settings, CABAC                   : Yes
Format settings, ReFrames                : 4 frames
Codec ID                                 : avc1
Codec ID/Info                            : Advanced Video Coding
Duration                                 : 1 min 32 s
Bit rate                                 : 6 356 kb/s
Maximum bit rate                         : 15.5 Mb/s
Width                                    : 1 920 pixels
Height                                   : 1 080 pixels
Display aspect ratio                     : 16:9
Frame rate mode                          : Constant
Frame rate                               : 23.976 (24000/1001) FPS
Color space                              : YUV
Chroma subsampling                       : 4:2:0
Bit depth                                : 8 bits
Scan type                                : Progressive
Bits/(Pixel*Frame)                       : 0.128
Stream size                              : 69.7 MiB (95%)
Title                                    : 264@GPAC0.6.2-DEV-rev681-g32e98cd-master
Writing library                          : x264 core 148 r2721 72d53ab
Encoding settings                        : cabac=1 / ref=4 / deblock=1:1:1 / analyse=0x3:0x133 / me=umh / subme=10 / psy=1 / psy_rd=0.40:0.00 / mixed_ref=1 / me_range=24 / chroma_me=1 / trellis=2 / 8x8dct=1 / cqm=0 / deadzone=21,11 / fast_pskip=1 / chroma_qp_offset=-2 / threads=12 / lookahead_threads=2 / sliced_threads=0 / nr=0 / decimate=1 / interlaced=0 / bluray_compat=0 / constrained_intra=0 / bframes=7 / b_pyramid=2 / b_adapt=2 / b_bias=0 / direct=3 / weightb=1 / open_gop=0 / weightp=2 / keyint=250 / keyint_min=23 / scenecut=40 / intra_refresh=0 / rc_lookahead=60 / rc=crf / mbtree=1 / crf=17.3 / qcomp=0.60 / qpmin=0 / qpmax=69 / qpstep=4 / ip_ratio=1.40 / aq=1:1.40
Encoded date                             : UTC 2016-11-29 20:12:03
Tagged date                              : UTC 2016-11-29 20:12:04

Audio
ID                                       : 2
Format                                   : AAC
Format/Info                              : Advanced Audio Codec
Format profile                           : LC
Codec ID                                 : 40
Duration                                 : 1 min 32 s
Bit rate mode                            : Variable
Bit rate                                 : 308 kb/s
Maximum bit rate                         : 346 kb/s
Channel(s)                               : 2 channels
Channel positions                        : Front: L R
Sampling rate                            : 48.0 kHz
Frame rate                               : 46.875 FPS (1024 spf)
Compression mode                         : Lossy
Stream size                              : 3.38 MiB (5%)
Encoded date                             : UTC 2016-11-29 20:12:01
Tagged date                              : UTC 2016-11-29 20:12:04

Other Files in this Torrent
[NoobSubs] One-Punch Man NCOP (1080p Blu-ray 8bit AAC).mp4
beta
Anime DDL+NZB mirror
Current Time: 20/05/2022 04:58



About/FAQs

Discord