File Size274.9 MB (288,257,443 bytes)
DownloadGo4Up | Jheberg | MultiUp
  • ClickNupload
  • Fichier
  • Filerio
  • Free
  • Fufox
  • HugeFiles
  • Mightyupload
  • ToutBox
  • Turbobit
  • UpToBox
  • Uplea
  • UploadBaz
  • Uploadable
  • Uploaded
  • Uppit
  • Userscloud
| OpenLoad | Sendspace | SolidFiles | UsersCloud
HashesCRC32: D54A445A, MD5: 1EF770B6135CCE563CF798DB1EEF441D, SHA1: C1E64D8B1B682E0D780202B10A95755198B57F99, SHA256: 118A927F7E27A9452C8361A9B036BD16B33E069A5B97A5D8319DF842F6E46CA4, ED2K: DD839609D07F4A7BE0DA23C59FE9CA0F
Screenshots
screenshotscreenshotscreenshotscreenshotscreenshot
Additional Info
General
Complete name                            : [NoobSubs] One-Punch Man OAD 06 (1080p Blu-ray 8bit AAC).mp4
Format                                   : MPEG-4
Format profile                           : Base Media
Codec ID                                 : isom (isom/avc1)
File size                                : 275 MiB
Duration                                 : 12 min 22 s
Overall bit rate mode                    : Variable
Overall bit rate                         : 3 106 kb/s
Movie name                               : [NoobSubs] One-Punch Man OAD 06 (1080p Blu-ray 8bit AAC)
Album                                    : One-Punch Man OAD
Track name/Position                      : 6
Track name/Total                         : 6
Performer                                : Subs: [SallySubs]
Encoded date                             : UTC 2016-11-29 23:20:14
Tagged date                              : UTC 2016-11-30 02:49:51
replaygain_track_gain                    : +1.31 dB
replaygain_track_minmax                  : 103,177
replaygain_track_peak                    : 0.670000

Video
ID                                       : 1
Format                                   : AVC
Format/Info                              : Advanced Video Codec
Format profile                           : High@L4
Format settings, CABAC                   : Yes
Format settings, ReFrames                : 4 frames
Codec ID                                 : avc1
Codec ID/Info                            : Advanced Video Coding
Duration                                 : 12 min 22 s
Bit rate                                 : 2 817 kb/s
Maximum bit rate                         : 10.4 Mb/s
Width                                    : 1 920 pixels
Height                                   : 1 080 pixels
Display aspect ratio                     : 16:9
Frame rate mode                          : Constant
Frame rate                               : 23.976 (24000/1001) FPS
Color space                              : YUV
Chroma subsampling                       : 4:2:0
Bit depth                                : 8 bits
Scan type                                : Progressive
Bits/(Pixel*Frame)                       : 0.057
Stream size                              : 249 MiB (91%)
Title                                    : 264@GPAC0.6.2-DEV-rev681-g32e98cd-master
Writing library                          : x264 core 148 r2721 72d53ab
Encoding settings                        : cabac=1 / ref=4 / deblock=1:1:1 / analyse=0x3:0x133 / me=umh / subme=10 / psy=1 / psy_rd=0.40:0.00 / mixed_ref=1 / me_range=24 / chroma_me=1 / trellis=2 / 8x8dct=1 / cqm=0 / deadzone=21,11 / fast_pskip=1 / chroma_qp_offset=-2 / threads=12 / lookahead_threads=2 / sliced_threads=0 / nr=0 / decimate=1 / interlaced=0 / bluray_compat=0 / constrained_intra=0 / bframes=7 / b_pyramid=2 / b_adapt=2 / b_bias=0 / direct=3 / weightb=1 / open_gop=0 / weightp=2 / keyint=250 / keyint_min=23 / scenecut=40 / intra_refresh=0 / rc_lookahead=60 / rc=crf / mbtree=1 / crf=17.3 / qcomp=0.60 / qpmin=0 / qpmax=69 / qpstep=4 / ip_ratio=1.40 / aq=1:1.40
Encoded date                             : UTC 2016-11-29 23:20:14
Tagged date                              : UTC 2016-11-29 23:20:17

Audio
ID                                       : 2
Format                                   : AAC
Format/Info                              : Advanced Audio Codec
Format profile                           : LC
Codec ID                                 : 40
Duration                                 : 12 min 22 s
Bit rate mode                            : Variable
Bit rate                                 : 288 kb/s
Maximum bit rate                         : 348 kb/s
Channel(s)                               : 2 channels
Channel positions                        : Front: L R
Sampling rate                            : 48.0 kHz
Frame rate                               : 46.875 FPS (1024 spf)
Compression mode                         : Lossy
Stream size                              : 25.3 MiB (9%)
Encoded date                             : UTC 2016-11-29 23:19:55
Tagged date                              : UTC 2016-11-29 23:20:17

Other Files in this Torrent
[NoobSubs] One-Punch Man OAD 06 (1080p Blu-ray 8bit AAC).mp4
beta
Anime DDL+NZB mirror
Current Time: 29/01/2022 10:24



About/FAQs

Discord