File Size242.5 MB (254,288,177 bytes)
DownloadGo4Up | Jheberg | MultiUp
  • ClickNupload
  • Fichier
  • Filerio
  • Free
  • Fufox
  • HugeFiles
  • Mightyupload
  • ToutBox
  • Turbobit
  • UpToBox
  • Uplea
  • UploadBaz
  • Uploadable
  • Uploaded
  • Uppit
  • Userscloud
| OpenLoad | Sendspace | SolidFiles | UsersCloud
HashesCRC32: C2F883A8, MD5: 480A4B526E257E605CDB7108EB3D9A76, SHA1: D37E8D4A66005770FF3E39F8D6137F1DEC2B687F, SHA256: DA7D8185CDF36E636DB603D24C99128344FD470A5D706EF885FA441877AA5E1C, ED2K: 4C45402C2D8980CF7858D77943CBFA12
Screenshots
screenshotscreenshotscreenshotscreenshotscreenshot
Additional Info
General
Complete name                            : [NoobSubs] One-Punch Man OAD 02 (1080p Blu-ray 8bit AAC).mp4
Format                                   : MPEG-4
Format profile                           : Base Media
Codec ID                                 : isom (isom/avc1)
File size                                : 243 MiB
Duration                                 : 11 min 40 s
Overall bit rate mode                    : Variable
Overall bit rate                         : 2 906 kb/s
Movie name                               : [NoobSubs] One-Punch Man OAD 02 (1080p Blu-ray 8bit AAC)
Album                                    : One-Punch Man OAD
Track name/Position                      : 2
Track name/Total                         : 6
Performer                                : Subs: [SallySubs]
Encoded date                             : UTC 2016-11-29 20:56:38
Tagged date                              : UTC 2016-11-30 02:48:12
replaygain_track_gain                    : +1.48 dB
replaygain_track_minmax                  : 97,179
replaygain_track_peak                    : 0.790000

Video
ID                                       : 1
Format                                   : AVC
Format/Info                              : Advanced Video Codec
Format profile                           : High@L4
Format settings, CABAC                   : Yes
Format settings, ReFrames                : 4 frames
Codec ID                                 : avc1
Codec ID/Info                            : Advanced Video Coding
Duration                                 : 11 min 39 s
Bit rate                                 : 2 606 kb/s
Maximum bit rate                         : 18.9 Mb/s
Width                                    : 1 920 pixels
Height                                   : 1 080 pixels
Display aspect ratio                     : 16:9
Frame rate mode                          : Constant
Frame rate                               : 23.976 (24000/1001) FPS
Color space                              : YUV
Chroma subsampling                       : 4:2:0
Bit depth                                : 8 bits
Scan type                                : Progressive
Bits/(Pixel*Frame)                       : 0.052
Stream size                              : 217 MiB (90%)
Title                                    : 264@GPAC0.6.2-DEV-rev681-g32e98cd-master
Writing library                          : x264 core 148 r2721 72d53ab
Encoding settings                        : cabac=1 / ref=4 / deblock=1:1:1 / analyse=0x3:0x133 / me=umh / subme=10 / psy=1 / psy_rd=0.40:0.00 / mixed_ref=1 / me_range=24 / chroma_me=1 / trellis=2 / 8x8dct=1 / cqm=0 / deadzone=21,11 / fast_pskip=1 / chroma_qp_offset=-2 / threads=12 / lookahead_threads=2 / sliced_threads=0 / nr=0 / decimate=1 / interlaced=0 / bluray_compat=0 / constrained_intra=0 / bframes=7 / b_pyramid=2 / b_adapt=2 / b_bias=0 / direct=3 / weightb=1 / open_gop=0 / weightp=2 / keyint=250 / keyint_min=23 / scenecut=40 / intra_refresh=0 / rc_lookahead=60 / rc=crf / mbtree=1 / crf=17.3 / qcomp=0.60 / qpmin=0 / qpmax=69 / qpstep=4 / ip_ratio=1.40 / aq=1:1.40
Encoded date                             : UTC 2016-11-29 20:56:38
Tagged date                              : UTC 2016-11-29 20:56:40

Audio
ID                                       : 2
Format                                   : AAC
Format/Info                              : Advanced Audio Codec
Format profile                           : LC
Codec ID                                 : 40
Duration                                 : 11 min 40 s
Bit rate mode                            : Variable
Bit rate                                 : 296 kb/s
Maximum bit rate                         : 343 kb/s
Channel(s)                               : 2 channels
Channel positions                        : Front: L R
Sampling rate                            : 48.0 kHz
Frame rate                               : 46.875 FPS (1024 spf)
Compression mode                         : Lossy
Stream size                              : 24.7 MiB (10%)
Encoded date                             : UTC 2016-11-29 20:56:20
Tagged date                              : UTC 2016-11-29 20:56:40

Other Files in this Torrent
[NoobSubs] One-Punch Man OAD 02 (1080p Blu-ray 8bit AAC).mp4
beta
Anime DDL+NZB mirror
Current Time: 07/12/2021 02:40



About/FAQs

Discord